<?xml version="1.0" standalone="yes"?><svg version="1.1" xmlns = 'http://www.w3.org/2000/svg'><defs><font id='web' horiz-adv-x="1000">
<font-face font-family="web" descent="-315" cap-height="1634" units-per-em="2048" bbox="-193,-432,2159,2064" x-height="1126" ascent="1645" />
<missing-glyph horiz-adv-x="324" d="" /><glyph horiz-adv-x="1280" d="M 476 -32 C 342 -32 239 5 166 80 C 92 154 56 248 56 360 C 56 506 108 636 214 750 C 319 863 449 920 604 920 C 668 920 734 908 802 886 C 870 863 924 840 964 816 C 972 872 976 928 976 984 C 976 1109 953 1207 908 1278 C 862 1348 800 1384 720 1384 C 634 1384 567 1374 518 1356 C 468 1337 418 1312 368 1280 L 324 1444 C 374 1473 430 1498 492 1518 C 553 1538 629 1548 720 1548 C 877 1548 992 1496 1064 1394 C 1136 1291 1172 1149 1172 968 C 1172 690 1104 454 968 260 C 832 65 668 -32 476 -32 Z M 488 128 C 716 128 868 313 944 684 C 922 705 882 726 824 748 C 765 769 706 780 648 780 C 520 780 424 738 360 654 C 296 570 264 476 264 372 C 264 300 282 241 318 196 C 354 150 410 128 488 128 Z" unicode="∂" />
<glyph horiz-adv-x="1536" d="M 76 0 L 652 1536 L 884 1536 L 1456 0 L 76 0 Z M 352 148 L 1164 148 L 752 1256 L 352 148 Z" unicode="∆" />
<glyph horiz-adv-x="1100" d="M 506 844 L 506 791 L 614 791 L 614 569 L 508 569 C 508 445 513 372 524 348 C 535 324 556 313 586 313 C 615 313 635 324 646 347 C 656 369 662 435 662 544 L 662 606 L 1067 606 C 1063 531 1055 450 1042 363 C 1029 276 1004 205 966 150 C 928 95 877 53 813 25 C 749 -3 674 -18 586 -18 C 321 -18 169 103 131 346 C 125 374 118 449 109 569 L 31 569 L 31 791 L 100 791 L 100 844 L 31 844 L 31 1065 L 102 1065 C 107 1203 119 1305 139 1370 C 159 1435 187 1488 225 1528 C 262 1568 310 1598 370 1620 C 429 1642 501 1653 586 1653 C 712 1653 815 1622 895 1562 C 975 1502 1025 1418 1047 1311 C 1058 1251 1066 1150 1071 1010 L 662 1010 L 659 1200 C 657 1237 651 1263 640 1279 C 629 1295 611 1303 586 1303 C 558 1303 539 1294 528 1277 C 517 1259 511 1233 510 1198 L 510 1144 L 508 1065 L 614 1065 L 614 844 L 506 844 Z" unicode="€" />
<glyph horiz-adv-x="1536" d="M 332 0 L 332 1348 L 80 1348 L 80 1524 L 1456 1524 L 1456 1348 L 1212 1348 L 1212 0 L 1004 0 L 1004 1356 L 540 1356 L 540 0 L 332 0 Z" unicode="∏" />
<glyph horiz-adv-x="1152" d="M 1084 1524 L 1084 1344 L 332 1344 L 796 784 L 304 188 L 1080 188 L 1080 0 L 40 0 L 40 172 L 560 788 L 68 1380 L 68 1524 L 1084 1524 Z" unicode="∑" />
<glyph horiz-adv-x="842" d="M 817 637 L 25 637 L 25 963 L 817 963 L 817 637 Z" unicode="−" />
<glyph horiz-adv-x="637" d="M 608 573 L 27 573 L 27 936 L 608 936 L 608 573 Z" unicode="–" />
<glyph horiz-adv-x="948" d="M 848 573 L 100 573 L 100 936 L 848 936 L 848 573 Z" unicode="—" />
<glyph horiz-adv-x="262" d="M 453 1632 C 306 1134 150 590 -14 0 L -193 0 L 59 874 L 274 1632 L 453 1632 Z" unicode="∕" />
<glyph horiz-adv-x="442" d="M 412 1376 L 412 954 L 35 954 L 35 1384 L 264 1649 L 426 1520 L 334 1384 L 340 1376 L 412 1376 Z" unicode="‘" />
<glyph horiz-adv-x="442" d="M 37 1214 L 37 1636 L 412 1636 L 412 1206 L 184 942 L 20 1071 L 113 1208 L 106 1214 L 37 1214 Z" unicode="’" />
<glyph horiz-adv-x="442" d="M 37 0 L 37 422 L 412 422 L 412 -8 L 184 -272 L 20 -143 L 113 -6 L 106 0 L 37 0 Z" unicode="‚" />
<glyph horiz-adv-x="864" d="M 827 1370 L 827 954 L 459 954 L 459 1380 L 686 1649 L 848 1520 L 752 1378 L 758 1370 L 827 1370 Z M 406 1370 L 406 954 L 35 954 L 35 1380 L 266 1649 L 426 1520 L 330 1378 L 334 1370 L 406 1370 Z" unicode="“" />
<glyph horiz-adv-x="864" d="M 461 1219 L 461 1636 L 831 1636 L 831 1210 L 602 942 L 440 1071 L 537 1214 L 530 1219 L 461 1219 Z M 41 1219 L 41 1636 L 410 1636 L 410 1210 L 180 942 L 18 1071 L 115 1214 L 109 1219 L 41 1219 Z" unicode="”" />
<glyph horiz-adv-x="864" d="M 461 0 L 461 418 L 831 418 L 831 -8 L 602 -279 L 440 -150 L 537 -6 L 530 0 L 461 0 Z M 41 0 L 41 418 L 410 418 L 410 -8 L 180 -279 L 18 -150 L 115 -6 L 109 0 L 41 0 Z" unicode="„" />
<glyph horiz-adv-x="324" d="" unicode=" " />
<glyph horiz-adv-x="508" d="M 465 1632 L 420 508 L 86 508 L 41 1632 L 465 1632 Z M 444 0 L 63 0 L 63 436 L 444 436 L 444 0 Z" unicode="!" />
<glyph horiz-adv-x="846" d="M 825 1634 L 811 952 L 465 952 L 449 1634 L 825 1634 Z M 383 1634 L 367 952 L 33 952 L 18 1634 L 383 1634 Z" unicode="&#x22;" />
<glyph horiz-adv-x="913" d="M 903 1155 L 872 874 L 733 874 C 731 871 725 819 715 719 L 866 719 L 834 438 L 686 438 L 641 -25 L 420 -25 L 465 438 L 367 438 L 319 -25 L 98 -25 L 145 438 L 8 438 L 41 719 L 172 719 L 190 874 L 45 874 L 78 1155 L 219 1155 L 266 1628 L 489 1628 L 440 1155 L 541 1155 L 586 1628 L 807 1628 L 762 1155 L 903 1155 Z M 512 874 L 412 874 L 395 719 L 494 719 C 504 819 510 871 512 874 Z" unicode="#" />
<glyph horiz-adv-x="1004" d="M 606 1636 C 690 1623 760 1596 817 1554 C 873 1512 914 1456 939 1386 C 964 1316 977 1226 977 1114 L 588 1114 L 589 1140 C 587 1194 585 1225 584 1231 C 579 1277 550 1300 498 1300 C 438 1300 408 1273 408 1221 C 408 1173 425 1131 459 1095 C 493 1058 568 1004 682 932 C 797 858 876 784 920 711 C 963 638 985 545 985 432 C 985 309 952 210 887 135 C 821 60 728 15 606 0 L 606 -113 L 401 -113 L 401 0 C 281 12 189 46 124 102 C 58 157 23 232 18 328 L 16 462 L 16 492 L 403 492 L 408 399 L 410 379 C 412 358 421 342 437 331 C 453 320 475 315 502 315 C 556 315 584 345 584 406 C 584 440 579 469 569 491 C 559 513 542 535 516 559 C 490 582 422 631 311 705 C 195 780 117 852 77 922 C 36 992 16 1089 16 1214 C 16 1332 50 1428 119 1504 C 188 1580 282 1624 401 1638 L 401 1679 L 606 1679 L 606 1636 Z" unicode="$" />
<glyph horiz-adv-x="1473" d="M 719 1155 C 719 1053 688 972 628 913 C 567 854 483 825 375 825 C 271 825 190 854 132 912 C 74 970 45 1051 45 1155 L 45 1329 C 45 1426 75 1506 136 1568 C 197 1630 279 1661 383 1661 C 453 1661 514 1646 564 1618 C 614 1589 653 1549 679 1499 C 705 1448 719 1391 719 1329 L 719 1155 Z M 1229 1618 L 414 0 L 229 0 L 1044 1618 L 1229 1618 Z M 1423 311 C 1423 207 1393 126 1334 68 C 1275 9 1191 -20 1081 -20 C 978 -20 897 9 838 67 C 779 125 750 207 750 311 L 750 483 C 750 581 780 661 842 723 C 904 784 985 815 1087 815 C 1156 815 1216 800 1267 772 C 1317 743 1356 704 1383 654 C 1409 604 1423 547 1423 483 L 1423 311 Z M 449 1176 L 449 1311 C 449 1330 443 1347 431 1362 C 419 1376 403 1384 383 1384 C 358 1384 340 1376 330 1361 C 320 1346 315 1329 315 1311 L 315 1176 C 315 1120 337 1092 383 1092 C 427 1092 449 1120 449 1176 Z M 1155 332 L 1155 465 C 1155 483 1149 501 1139 517 C 1129 533 1111 541 1087 541 C 1061 541 1044 533 1034 517 C 1024 501 1020 483 1020 465 L 1020 332 C 1020 274 1042 246 1087 246 C 1132 246 1155 274 1155 332 Z" unicode="%" />
<glyph horiz-adv-x="1266" d="M 662 750 C 740 636 785 572 795 559 C 815 620 825 687 825 760 L 1169 760 C 1166 554 1124 389 1044 266 L 1272 0 L 844 0 L 799 61 C 716 12 616 -12 498 -12 C 355 -12 240 15 153 71 C 66 127 20 205 16 305 L 14 384 C 14 450 17 498 24 528 C 31 558 43 589 61 622 C 79 654 101 686 129 716 C 156 746 193 781 240 821 C 159 971 119 1090 119 1178 L 118 1262 C 118 1344 134 1413 167 1468 C 199 1522 246 1565 308 1596 C 370 1626 442 1642 524 1642 C 631 1642 718 1611 785 1550 C 852 1489 889 1409 895 1309 L 895 1204 C 893 1132 874 1059 838 986 C 802 912 744 834 662 750 Z M 496 1028 C 544 1088 570 1146 573 1202 L 573 1249 C 570 1287 553 1307 522 1307 C 485 1307 465 1284 463 1239 L 463 1163 C 466 1114 477 1069 496 1028 Z M 432 537 C 398 495 381 452 381 408 C 381 371 390 345 410 329 C 429 313 460 304 504 303 C 538 303 562 310 578 324 C 544 368 496 439 432 537 Z" unicode="&#x26;" />
<glyph horiz-adv-x="436" d="M 406 1634 L 389 897 L 45 897 L 31 1634 L 406 1634 Z" unicode="'" />
<glyph horiz-adv-x="610" d="M 602 -143 L 190 -143 C 142 -31 103 105 73 269 C 43 433 29 592 29 748 C 29 886 43 1035 73 1197 C 102 1359 141 1504 190 1634 L 602 1634 C 556 1500 518 1351 489 1189 C 460 1026 446 877 446 743 C 446 594 460 436 490 270 C 520 104 557 -33 602 -143 Z" unicode="(" />
<glyph horiz-adv-x="610" d="M 582 748 C 582 586 566 423 535 257 C 504 91 466 -42 422 -143 L 8 -143 C 56 -27 94 112 123 276 C 151 440 166 596 166 743 C 166 877 150 1029 120 1197 C 89 1365 52 1510 8 1634 L 422 1634 C 467 1518 505 1378 536 1214 C 566 1050 582 894 582 748 Z" unicode=")" />
<glyph horiz-adv-x="977" d="M 598 1399 L 825 1489 L 899 1262 L 659 1182 L 819 983 L 633 842 L 485 1044 L 340 842 L 154 983 L 311 1180 L 74 1262 L 147 1489 L 379 1399 L 373 1657 L 604 1657 L 598 1399 Z" unicode="*" />
<glyph horiz-adv-x="842" d="M 817 641 L 584 641 L 584 375 L 260 375 L 260 641 L 25 641 L 25 961 L 260 961 L 260 1225 L 586 1225 L 586 961 L 817 961 L 817 641 Z" unicode="+" />
<glyph horiz-adv-x="492" d="M 442 -8 L 219 -258 L 37 -162 L 131 -6 L 125 0 L 47 0 L 47 453 L 442 453 L 442 -8 Z" unicode="," />
<glyph horiz-adv-x="698" d="M 678 598 L 20 598 L 20 989 L 678 989 L 678 598 Z" unicode="-" />
<glyph horiz-adv-x="492" d="M 444 0 L 47 0 L 47 453 L 444 453 L 444 0 Z" unicode="." />
<glyph horiz-adv-x="465" d="M 467 1636 L 186 -332 L -41 -332 L 240 1636 L 467 1636 Z" unicode="/" />
<glyph horiz-adv-x="1022" d="M 512 1653 C 638 1653 742 1622 822 1562 C 902 1501 953 1417 973 1311 C 990 1213 999 1049 999 819 C 999 738 995 651 989 559 C 982 466 975 395 967 346 C 947 226 899 136 822 74 C 744 12 641 -18 512 -18 C 250 -18 99 103 57 346 C 49 392 42 464 36 561 C 30 658 27 744 27 819 C 27 1063 35 1227 51 1309 C 67 1391 93 1456 130 1504 C 167 1552 216 1588 277 1613 C 338 1638 416 1651 512 1653 Z M 588 821 L 586 1200 C 584 1237 578 1263 567 1279 C 555 1295 537 1303 512 1303 C 485 1303 466 1294 455 1277 C 443 1259 437 1233 436 1198 C 434 1162 433 1035 432 815 C 432 635 434 502 438 414 C 440 378 446 352 458 336 C 469 320 487 313 512 313 C 536 313 554 320 566 336 C 578 352 584 378 586 414 L 588 598 L 588 821 Z" unicode="0" />
<glyph horiz-adv-x="700" d="M 645 0 L 248 0 L 248 1133 L 16 1128 L 16 1456 C 77 1457 128 1466 168 1483 C 208 1499 241 1519 266 1542 C 291 1564 312 1596 330 1636 L 645 1636 L 645 0 Z" unicode="1" />
<glyph horiz-adv-x="1010" d="M 979 0 L 31 0 L 31 338 C 45 364 66 394 96 430 C 125 465 173 519 241 592 C 353 712 433 815 482 901 C 530 986 555 1066 557 1141 L 557 1219 C 555 1253 549 1277 538 1289 C 526 1301 511 1307 492 1307 C 474 1307 460 1300 448 1288 C 436 1275 429 1255 428 1229 L 428 1049 L 31 1049 L 31 1170 L 33 1292 C 35 1357 56 1418 98 1474 C 140 1530 197 1573 270 1605 C 343 1637 426 1653 520 1653 C 672 1653 787 1620 866 1554 C 944 1488 984 1391 984 1264 L 981 1108 C 975 1048 959 988 933 926 C 907 864 871 801 826 736 C 781 671 700 573 582 441 C 554 410 534 384 520 362 L 979 362 L 979 0 Z" unicode="2" />
<glyph horiz-adv-x="1006" d="M 664 870 C 752 866 825 839 883 791 C 941 742 974 678 983 600 C 985 568 987 527 987 477 C 987 425 985 379 983 338 C 975 227 929 140 845 77 C 760 13 644 -18 498 -18 C 351 -18 238 10 158 66 C 78 122 35 201 27 303 C 19 408 16 491 16 551 L 414 551 L 414 525 C 414 431 415 374 419 354 C 422 333 430 318 444 310 C 458 302 471 299 485 301 C 513 301 532 309 543 326 C 554 342 560 375 560 423 L 560 511 C 560 553 556 584 549 603 C 542 622 530 635 513 643 C 495 651 464 655 420 657 L 388 657 L 246 659 L 246 999 L 440 999 C 477 1000 504 1008 520 1022 C 536 1036 546 1058 548 1089 C 550 1120 552 1148 552 1173 L 552 1216 C 552 1252 547 1276 537 1289 C 527 1302 510 1309 485 1309 C 471 1309 459 1305 449 1298 C 439 1290 433 1280 429 1268 C 425 1255 424 1196 424 1090 L 49 1090 C 49 1108 50 1150 52 1216 C 54 1282 57 1322 59 1335 C 71 1429 118 1506 198 1565 C 278 1623 379 1653 502 1653 C 642 1653 751 1620 829 1556 C 907 1492 947 1402 947 1286 L 947 1216 C 947 1114 921 1034 870 974 C 819 914 750 879 664 870 Z" unicode="3" />
<glyph horiz-adv-x="1049" d="M 1040 285 L 907 285 L 907 0 L 524 0 L 524 287 L 10 287 L 10 645 L 487 1636 L 907 1636 L 907 627 L 1040 627 L 1040 285 Z M 524 627 L 524 977 L 358 627 L 524 627 Z" unicode="4" />
<glyph horiz-adv-x="1004" d="M 508 -18 C 351 -18 231 13 148 76 C 65 139 24 234 24 360 L 24 465 L 23 514 L 418 514 L 422 377 C 425 349 432 329 443 317 C 453 305 469 299 489 299 C 512 299 529 305 539 318 C 549 330 555 351 557 379 C 558 407 559 460 559 540 L 557 713 C 554 760 532 784 492 784 C 445 784 422 744 422 666 L 41 666 L 41 1634 L 934 1634 L 934 1270 L 406 1270 L 406 1032 C 418 1064 447 1091 491 1112 C 535 1132 589 1143 653 1143 C 709 1143 758 1134 802 1116 C 846 1098 882 1074 910 1042 C 938 1010 958 972 970 927 C 982 881 988 774 988 605 C 988 469 986 375 983 322 C 978 252 957 192 919 142 C 881 92 827 52 758 24 C 689 -3 606 -18 508 -18 Z" unicode="5" />
<glyph horiz-adv-x="1001" d="M 526 -18 C 439 -18 364 -6 302 17 C 240 40 189 76 149 124 C 109 172 81 229 67 295 C 53 361 42 439 36 531 C 30 622 27 718 27 819 C 27 1014 38 1175 61 1303 C 80 1413 129 1498 207 1560 C 285 1622 388 1653 516 1653 C 640 1653 739 1626 812 1572 C 885 1518 930 1438 948 1333 C 954 1291 958 1218 958 1116 L 582 1116 L 582 1167 L 580 1208 C 576 1243 569 1268 559 1283 C 548 1297 531 1305 508 1305 C 478 1305 458 1292 446 1266 C 434 1240 429 1172 429 1062 L 430 975 C 455 996 488 1012 528 1022 C 568 1032 611 1038 655 1038 C 733 1038 797 1022 847 991 C 897 959 931 915 951 859 C 971 803 981 708 981 575 C 981 409 970 296 948 236 C 915 148 864 84 794 43 C 724 2 635 -18 526 -18 Z M 582 528 L 580 645 C 578 664 572 680 560 693 C 548 706 530 713 508 713 C 487 713 469 707 455 695 C 441 683 432 668 428 649 C 428 582 428 529 430 489 C 432 449 434 415 436 385 C 442 333 467 307 512 307 C 531 307 547 313 559 326 C 571 338 578 356 580 379 L 582 528 Z" unicode="6" />
<glyph horiz-adv-x="877" d="M 870 1313 L 522 0 L 90 0 L 449 1270 L 6 1270 L 6 1634 L 870 1634 L 870 1313 Z" unicode="7" />
<glyph horiz-adv-x="1036" d="M 516 -18 C 348 -18 224 15 143 83 C 62 150 21 257 20 405 C 20 573 27 678 43 718 C 58 758 84 793 122 824 C 159 854 202 875 250 887 C 196 897 151 925 115 969 C 79 1013 60 1062 59 1116 L 55 1294 L 55 1337 C 63 1442 107 1521 185 1575 C 263 1628 373 1655 516 1655 C 612 1655 694 1641 762 1615 C 830 1588 882 1551 918 1504 C 954 1456 974 1401 977 1339 L 979 1234 L 977 1133 C 974 1075 955 1023 919 979 C 883 934 836 903 776 887 C 841 875 895 845 939 797 C 982 749 1006 696 1012 637 C 1015 605 1017 552 1017 480 L 1012 344 C 1003 227 956 137 871 75 C 785 13 667 -18 516 -18 Z M 584 1176 L 582 1268 C 576 1306 553 1325 514 1325 C 498 1325 485 1321 474 1313 C 463 1305 455 1294 451 1280 C 447 1265 445 1231 445 1177 C 445 1121 447 1085 451 1069 C 455 1053 463 1041 475 1035 C 486 1029 500 1026 516 1026 C 554 1026 576 1044 582 1081 L 584 1176 Z M 600 510 L 596 631 C 590 677 563 700 516 700 C 467 700 440 676 434 629 C 432 612 431 571 431 505 C 431 439 432 397 434 379 C 440 333 468 311 516 311 C 538 311 556 316 571 327 C 586 338 595 358 597 387 C 599 416 600 457 600 510 Z" unicode="8" />
<glyph horiz-adv-x="1004" d="M 489 -20 C 414 -20 349 -10 293 9 C 237 29 191 58 154 97 C 117 136 90 185 74 243 C 57 301 49 386 49 498 L 426 498 L 426 445 C 426 385 432 348 444 332 C 456 316 474 309 500 309 C 517 309 531 313 543 321 C 555 329 563 341 568 357 C 572 372 575 432 575 536 L 575 641 C 527 600 456 580 362 580 C 290 580 228 593 177 620 C 125 647 88 688 64 744 C 40 800 29 898 29 1040 C 29 1235 45 1367 79 1437 C 113 1506 166 1560 240 1598 C 313 1636 400 1655 502 1655 C 713 1655 849 1582 909 1438 C 930 1384 947 1300 960 1188 C 972 1075 979 955 979 829 C 979 702 974 584 964 476 C 954 367 937 285 915 230 C 892 174 861 128 823 92 C 785 56 738 28 682 9 C 626 -10 562 -20 489 -20 Z M 580 934 L 580 1058 L 578 1217 C 574 1277 548 1307 500 1307 C 483 1307 469 1302 457 1293 C 445 1284 436 1272 432 1257 C 427 1241 425 1186 425 1091 L 428 946 C 432 904 456 883 502 883 C 522 883 539 888 552 900 C 565 911 574 922 580 934 Z" unicode="9" />
<glyph horiz-adv-x="475" d="M 422 725 L 55 725 L 55 1155 L 422 1155 L 422 725 Z M 422 0 L 55 0 L 55 428 L 422 428 L 422 0 Z" unicode=":" />
<glyph horiz-adv-x="475" d="M 424 725 L 63 725 L 63 1155 L 424 1155 L 424 725 Z M 424 -2 L 207 -264 L 43 -143 L 131 -6 L 123 0 L 63 0 L 63 428 L 424 428 L 424 -2 Z" unicode=";" />
<glyph horiz-adv-x="776" d="M 731 596 L 731 266 L 23 553 L 23 938 L 731 1225 L 731 893 L 319 745 L 731 596 Z" unicode="&#x3C;" />
<glyph horiz-adv-x="825" d="M 803 829 L 27 829 L 27 1133 L 803 1133 L 803 829 Z M 803 444 L 27 444 L 27 745 L 803 745 L 803 444 Z" unicode="=" />
<glyph horiz-adv-x="776" d="M 39 266 L 39 596 L 446 745 L 39 893 L 39 1225 L 745 938 L 745 553 L 39 266 Z" unicode="&#x3E;" />
<glyph horiz-adv-x="946" d="M 581 536 L 582 508 L 258 508 L 256 569 C 256 709 295 829 375 929 C 437 1007 475 1059 491 1087 C 507 1114 515 1144 516 1176 L 516 1276 C 514 1298 509 1315 500 1326 C 490 1337 475 1343 455 1343 C 440 1343 428 1339 418 1332 C 408 1325 401 1315 397 1303 C 393 1290 391 1258 391 1207 L 391 1135 L 29 1135 L 29 1193 C 29 1279 31 1336 35 1362 C 41 1450 85 1520 165 1573 C 245 1626 350 1653 481 1653 C 618 1653 724 1627 798 1576 C 872 1525 912 1454 920 1362 L 923 1269 L 920 1171 C 918 1123 903 1076 877 1031 C 850 985 804 929 739 861 C 633 749 581 641 581 536 Z M 616 0 L 229 0 L 229 436 L 616 436 L 616 0 Z" unicode="?" />
<glyph horiz-adv-x="1530" d="M 1124 360 C 1006 360 934 410 909 512 C 885 462 850 425 803 399 C 756 373 701 360 637 360 C 537 360 462 389 414 447 C 366 505 342 586 342 688 C 342 777 358 860 390 936 C 422 1012 467 1072 526 1116 C 585 1160 653 1182 729 1182 C 773 1182 813 1173 849 1155 C 884 1137 906 1115 915 1087 L 934 1163 L 1184 1163 C 1171 1074 1157 987 1142 903 L 1104 694 L 1100 656 C 1100 638 1103 621 1111 606 C 1119 591 1140 584 1174 584 C 1223 584 1260 612 1285 670 C 1310 727 1323 801 1323 892 C 1323 1000 1302 1096 1262 1178 C 1222 1260 1164 1323 1089 1367 C 1013 1411 925 1434 825 1434 C 700 1434 587 1404 485 1344 C 383 1284 304 1203 250 1099 C 195 995 168 874 168 736 C 168 537 221 382 329 272 C 436 161 586 106 778 106 C 845 106 912 116 980 138 C 1048 159 1109 190 1163 231 L 1227 117 C 1159 67 1087 31 1012 9 C 936 -12 855 -23 768 -23 C 535 -23 354 43 224 176 C 94 308 29 496 29 738 C 29 898 63 1040 131 1164 C 199 1288 294 1384 416 1453 C 538 1521 676 1556 829 1556 C 959 1556 1076 1527 1179 1469 C 1282 1411 1362 1332 1418 1230 C 1474 1128 1503 1014 1504 887 C 1504 785 1488 694 1456 614 C 1424 533 1379 470 1321 426 C 1263 382 1197 360 1124 360 Z M 844 843 C 844 865 837 883 823 898 C 809 912 794 920 776 920 C 728 920 692 903 667 870 C 641 836 629 789 629 727 C 629 665 654 635 705 635 C 725 635 743 638 759 646 C 774 653 788 665 800 683 C 812 700 822 728 831 766 C 839 804 844 830 844 843 Z" unicode="@" />
<glyph horiz-adv-x="1124" d="M 469 403 L 414 0 L -2 0 L 276 1634 L 872 1634 L 1126 0 L 705 0 L 653 403 L 469 403 Z M 618 707 L 590 912 C 572 1024 563 1113 561 1180 C 558 1099 552 1029 543 969 L 502 707 L 618 707 Z" unicode="A" />
<glyph horiz-adv-x="1147" d="M 700 0 L 51 0 L 51 1634 L 698 1634 C 826 1634 923 1604 991 1544 C 1058 1484 1092 1385 1092 1247 C 1092 1107 1071 1007 1030 948 C 995 890 938 856 860 846 C 918 839 967 819 1009 786 C 1051 752 1080 709 1096 657 C 1112 605 1120 535 1120 449 C 1120 342 1107 257 1083 194 C 1059 131 1015 83 953 50 C 890 16 806 0 700 0 Z M 657 1143 C 657 1205 652 1248 644 1272 C 635 1296 614 1309 580 1309 L 463 1309 L 463 965 L 590 965 C 623 965 642 984 648 1022 C 654 1060 657 1100 657 1143 Z M 672 496 C 672 566 666 611 656 632 C 646 653 627 664 600 664 L 463 664 L 463 322 L 598 322 C 627 322 647 333 657 356 C 667 379 672 426 672 496 Z" unicode="B" />
<glyph horiz-adv-x="1096" d="M 1071 631 L 1071 581 C 1071 488 1067 408 1061 342 C 1047 225 997 136 912 74 C 827 12 711 -18 563 -18 C 430 -18 323 7 241 58 C 159 108 103 188 73 297 C 42 406 27 581 27 821 C 27 923 30 1012 36 1086 C 42 1160 53 1237 70 1319 C 89 1422 144 1503 235 1561 C 326 1619 440 1649 578 1649 C 663 1649 737 1638 799 1616 C 861 1594 912 1560 954 1514 C 995 1468 1024 1412 1042 1346 C 1060 1280 1069 1160 1069 987 L 668 987 L 667 1041 C 665 1101 662 1146 658 1178 C 654 1210 644 1233 630 1248 C 616 1262 595 1270 569 1270 C 542 1270 521 1262 506 1246 C 490 1230 481 1210 477 1186 C 465 1105 459 986 459 829 C 459 725 461 634 466 556 C 470 478 476 429 484 407 C 492 385 503 370 519 362 C 534 354 551 350 571 350 C 622 350 651 376 657 428 C 665 488 670 556 670 631 L 1071 631 Z" unicode="C" />
<glyph horiz-adv-x="1085" d="M 618 0 L 51 0 L 51 1634 L 571 1634 C 669 1634 749 1623 810 1601 C 871 1579 920 1546 957 1504 C 994 1461 1020 1389 1036 1288 C 1051 1186 1059 1041 1059 852 C 1059 608 1052 442 1038 354 C 1024 266 998 196 960 145 C 921 93 875 56 821 34 C 767 11 700 0 618 0 Z M 662 854 C 662 907 660 968 657 1037 C 653 1106 650 1158 646 1194 C 642 1230 632 1256 617 1272 C 602 1288 581 1296 555 1296 L 463 1296 L 463 311 L 563 311 C 584 311 602 318 617 332 C 632 346 641 363 645 385 C 652 441 657 494 659 542 C 661 590 662 694 662 854 Z" unicode="D" />
<glyph horiz-adv-x="946" d="M 926 0 L 51 0 L 51 1634 L 922 1634 L 922 1255 L 465 1255 L 465 1001 L 895 1001 L 895 643 L 465 643 L 465 371 L 926 371 L 926 0 Z" unicode="E" />
<glyph horiz-adv-x="934" d="M 922 1255 L 467 1255 L 467 997 L 883 997 L 883 625 L 467 625 L 467 0 L 51 0 L 51 1634 L 922 1634 L 922 1255 Z" unicode="F" />
<glyph horiz-adv-x="1112" d="M 1085 0 L 778 0 L 758 68 C 732 41 695 20 647 6 C 598 -8 548 -16 496 -16 C 376 -16 278 10 202 64 C 126 117 77 203 57 322 C 37 440 27 603 27 809 C 27 1069 40 1246 68 1339 C 96 1439 154 1516 241 1570 C 327 1624 435 1651 563 1651 C 701 1651 812 1623 895 1568 C 977 1513 1030 1431 1053 1323 C 1057 1296 1061 1246 1065 1174 C 1069 1102 1071 1057 1071 1040 L 664 1040 C 664 1061 661 1098 657 1152 C 653 1205 647 1238 640 1252 C 633 1266 624 1276 612 1284 C 600 1292 586 1296 569 1296 C 546 1296 528 1291 514 1281 C 500 1271 490 1255 484 1235 C 478 1215 473 1172 468 1108 C 463 1043 461 944 461 811 C 461 729 463 644 469 558 C 474 471 481 414 490 388 C 498 362 510 343 526 331 C 542 319 562 313 586 313 C 651 313 684 352 684 432 L 684 618 L 549 618 L 549 961 L 1081 961 L 1081 383 C 1081 282 1082 154 1085 0 Z" unicode="G" />
<glyph horiz-adv-x="1116" d="M 1065 0 L 649 0 L 649 637 L 465 637 L 465 0 L 51 0 L 51 1634 L 465 1634 L 465 995 L 649 995 L 649 1634 L 1065 1634 L 1065 0 Z" unicode="H" />
<glyph horiz-adv-x="532" d="M 481 0 L 53 0 L 53 1634 L 481 1634 L 481 0 Z" unicode="I" />
<glyph horiz-adv-x="686" d="M 643 397 C 643 257 607 155 535 91 C 463 27 346 -4 184 -4 C 163 -4 145 -3 131 -3 C 117 -3 77 0 12 6 L 12 375 L 73 375 C 128 375 163 379 178 388 C 193 396 205 408 213 424 C 221 440 225 459 225 481 L 225 1634 L 643 1634 L 643 397 Z" unicode="J" />
<glyph horiz-adv-x="1169" d="M 1167 0 L 698 0 L 508 543 L 465 463 L 465 0 L 51 0 L 51 1634 L 465 1634 L 465 1051 L 733 1634 L 1169 1634 L 831 928 L 1167 0 Z" unicode="K" />
<glyph horiz-adv-x="948" d="M 940 0 L 51 0 L 51 1634 L 477 1634 L 477 375 L 940 375 L 940 0 Z" unicode="L" />
<glyph horiz-adv-x="1530" d="M 1483 0 L 1102 0 L 1102 852 L 946 0 L 598 0 L 430 852 L 430 0 L 51 0 L 51 1634 L 608 1634 L 772 805 L 942 1634 L 1483 1634 L 1483 0 Z" unicode="M" />
<glyph horiz-adv-x="1073" d="M 1024 0 L 670 0 L 438 635 L 438 0 L 51 0 L 51 1634 L 401 1634 L 633 987 L 633 1634 L 1024 1634 L 1024 0 Z" unicode="N" />
<glyph horiz-adv-x="1116" d="M 557 1651 C 655 1651 741 1636 815 1606 C 888 1576 946 1533 989 1476 C 1031 1418 1059 1342 1072 1247 C 1085 1152 1092 1015 1092 836 C 1092 629 1083 477 1067 381 C 1050 284 1021 206 981 147 C 940 88 886 45 818 18 C 750 -9 663 -23 557 -23 C 476 -23 406 -15 348 1 C 289 17 239 41 198 75 C 157 108 124 151 99 204 C 73 256 55 320 44 394 C 32 468 27 611 27 821 C 27 1045 35 1196 51 1274 C 81 1407 137 1503 220 1562 C 302 1621 415 1651 557 1651 Z M 561 332 C 587 332 608 341 623 359 C 637 377 647 397 651 420 C 665 497 672 629 672 815 C 672 939 670 1037 666 1108 C 662 1179 653 1227 639 1253 C 624 1279 598 1292 561 1292 C 536 1292 517 1287 504 1277 C 490 1267 480 1250 472 1224 C 464 1198 458 1142 454 1055 C 450 968 449 888 449 815 C 449 635 455 502 469 418 C 479 360 509 332 561 332 Z" unicode="O" />
<glyph horiz-adv-x="1106" d="M 1083 1108 C 1083 984 1069 886 1041 814 C 1013 742 968 687 908 649 C 847 611 763 590 655 584 L 546 582 L 471 582 L 471 0 L 51 0 L 51 1634 L 659 1634 C 802 1634 908 1593 978 1511 C 1048 1429 1083 1294 1083 1108 Z M 664 1087 C 664 1115 661 1144 656 1174 C 650 1203 642 1225 630 1240 C 618 1254 600 1262 578 1262 L 469 1262 L 469 920 L 569 920 C 596 920 616 924 628 932 C 640 940 649 956 655 980 C 661 1004 664 1039 664 1087 Z" unicode="P" />
<glyph horiz-adv-x="1116" d="M 885 59 L 926 23 C 956 0 976 -14 987 -20 L 768 -313 C 762 -311 729 -286 668 -236 C 607 -186 554 -140 510 -96 C 466 -52 438 -20 428 -2 C 326 6 242 39 178 95 C 113 151 71 230 51 332 C 35 418 27 581 27 821 C 27 1045 35 1196 51 1274 C 81 1407 137 1503 220 1562 C 302 1621 415 1651 557 1651 C 655 1651 741 1636 815 1606 C 888 1576 946 1533 989 1476 C 1031 1418 1059 1342 1072 1247 C 1085 1152 1092 1015 1092 836 C 1092 624 1082 464 1063 358 C 1034 218 975 119 885 59 Z M 563 324 C 614 324 643 349 651 399 C 665 483 672 621 672 815 C 672 939 670 1037 666 1108 C 662 1179 653 1227 639 1253 C 624 1279 598 1292 561 1292 C 536 1292 517 1287 504 1277 C 490 1267 480 1250 472 1224 C 464 1198 458 1142 454 1055 C 450 968 449 888 449 815 C 449 635 455 495 469 397 C 475 348 506 324 563 324 Z" unicode="Q" />
<glyph horiz-adv-x="1124" d="M 1073 1141 C 1073 1029 1059 938 1031 867 C 1003 795 963 748 911 725 L 1118 0 L 690 0 L 539 623 L 455 623 L 455 0 L 51 0 L 51 1634 L 670 1634 C 758 1634 832 1616 893 1580 C 953 1544 998 1489 1028 1413 C 1058 1337 1073 1247 1073 1141 Z M 657 1100 C 657 1124 654 1151 649 1180 C 644 1209 633 1231 617 1246 C 601 1260 582 1268 561 1268 L 461 1268 L 461 954 L 479 954 C 543 954 582 956 596 960 C 610 964 620 970 628 978 C 635 985 642 1002 648 1029 C 654 1056 657 1080 657 1100 Z" unicode="R" />
<glyph horiz-adv-x="1030" d="M 1010 432 C 1010 285 967 172 881 94 C 795 16 673 -23 514 -23 C 405 -23 314 -8 241 22 C 168 52 113 96 75 155 C 37 214 18 302 18 419 L 18 487 L 414 487 L 420 377 C 424 330 454 307 512 307 C 569 307 598 341 598 410 C 598 452 587 487 566 517 C 545 547 503 584 440 629 L 264 756 C 193 806 142 851 110 891 C 78 931 55 977 39 1028 C 23 1079 16 1141 16 1214 C 16 1349 60 1456 148 1535 C 236 1613 358 1653 512 1653 C 595 1653 667 1641 728 1619 C 788 1596 838 1564 878 1523 C 918 1481 948 1430 968 1368 C 988 1306 999 1223 999 1120 L 602 1120 L 598 1235 C 590 1283 562 1307 512 1307 C 483 1307 460 1299 444 1285 C 428 1271 420 1249 420 1221 C 420 1196 424 1174 432 1156 C 440 1138 451 1120 467 1103 C 482 1086 521 1054 584 1008 L 760 877 C 832 822 883 775 915 735 C 947 695 970 650 986 602 C 1002 553 1010 496 1010 432 Z" unicode="S" />
<glyph horiz-adv-x="963" d="M 954 1255 L 690 1255 L 690 0 L 268 0 L 268 1255 L 6 1255 L 6 1634 L 954 1634 L 954 1255 Z" unicode="T" />
<glyph horiz-adv-x="1104" d="M 1059 434 C 1059 290 1015 179 927 100 C 839 21 715 -18 557 -18 C 393 -18 267 21 177 101 C 87 181 43 294 43 440 L 43 1634 L 457 1634 L 457 436 C 457 366 488 332 551 332 C 612 332 643 366 643 434 L 643 1634 L 1059 1634 L 1059 434 Z" unicode="U" />
<glyph horiz-adv-x="1108" d="M 1106 1634 L 805 0 L 279 0 L 2 1634 L 426 1634 L 555 530 L 684 1634 L 1106 1634 Z" unicode="V" />
<glyph horiz-adv-x="1661" d="M 1659 1634 L 1425 0 L 936 0 C 876 379 839 639 827 780 C 824 680 789 420 723 0 L 246 0 L 0 1634 L 426 1634 C 487 1044 518 692 518 580 C 518 684 556 1035 633 1634 L 1034 1634 C 1068 1394 1098 1171 1124 966 C 1150 760 1163 632 1163 580 C 1163 676 1189 1028 1243 1634 L 1659 1634 Z" unicode="W" />
<glyph horiz-adv-x="1157" d="M 578 334 L 453 0 L 2 0 L 358 852 L 25 1634 L 471 1634 L 600 1290 L 729 1634 L 1147 1634 L 815 784 L 1153 0 L 707 0 L 578 334 Z" unicode="X" />
<glyph horiz-adv-x="1153" d="M 1153 1634 L 778 625 L 778 0 L 356 0 L 356 614 L 0 1634 L 426 1634 C 517 1300 564 1113 567 1073 C 569 1109 588 1187 624 1309 C 660 1431 695 1539 727 1634 L 1153 1634 Z" unicode="Y" />
<glyph horiz-adv-x="1001" d="M 989 0 L 16 0 L 16 344 L 494 1253 L 55 1253 L 55 1634 L 981 1634 L 981 1288 L 496 373 L 989 373 L 989 0 Z" unicode="Z" />
<glyph horiz-adv-x="559" d="M 539 -338 L 51 -338 L 51 1634 L 539 1634 L 539 1327 L 414 1327 L 414 -43 L 539 -43 L 539 -338 Z" unicode="[" />
<glyph horiz-adv-x="465" d="M -6 1636 L 221 1636 L 500 -332 L 274 -332 L -6 1636 Z" unicode="\" />
<glyph horiz-adv-x="561" d="M 23 -338 L 23 -43 L 145 -43 L 145 1333 L 23 1333 L 23 1634 L 506 1634 L 506 -338 L 23 -338 Z" unicode="]" />
<glyph horiz-adv-x="1057" d="M 528 1339 L 242 1034 L 16 1264 L 377 1655 L 680 1655 L 1042 1264 L 815 1034 L 528 1339 Z" unicode="^" />
<glyph horiz-adv-x="770" d="M 770 -379 L 0 -379 L 0 -51 L 770 -51 L 770 -379 Z" unicode="_" />
<glyph horiz-adv-x="901" d="M 666 1202 L 317 1202 L 119 1542 L 518 1542 L 666 1202 Z" unicode="`" />
<glyph horiz-adv-x="961" d="M 934 0 L 561 0 L 555 80 C 503 20 418 -10 299 -10 C 206 -10 136 12 89 58 C 42 103 19 168 19 252 L 19 297 C 19 387 29 455 51 502 C 73 548 107 587 155 619 C 202 650 261 673 331 688 C 401 703 474 711 551 711 C 551 775 546 814 536 828 C 526 842 509 850 487 850 C 469 850 454 846 444 839 C 434 831 427 818 423 800 C 419 782 417 760 416 735 L 61 735 L 60 760 C 60 850 76 923 110 978 C 144 1032 195 1074 263 1104 C 331 1134 410 1149 500 1149 C 630 1149 731 1122 803 1070 C 875 1018 914 943 918 846 L 920 691 L 915 240 C 915 86 921 6 934 0 Z M 553 487 L 532 487 L 512 485 C 474 479 446 467 428 447 C 410 427 401 394 401 350 C 401 324 407 305 420 292 C 432 278 450 272 473 272 C 503 272 523 281 535 301 C 547 320 553 362 553 426 L 553 487 Z" unicode="a" />
<glyph horiz-adv-x="989" d="M 645 1143 C 725 1143 789 1122 836 1080 C 882 1038 915 972 935 882 C 955 791 965 691 965 582 C 965 469 955 366 936 273 C 917 180 883 110 833 64 C 783 17 716 -6 633 -6 C 580 -6 535 0 498 12 C 460 24 427 46 397 76 L 356 0 L 43 0 L 43 1636 L 414 1636 L 414 1034 C 430 1065 458 1091 498 1112 C 538 1132 587 1143 645 1143 Z M 496 836 C 472 836 455 829 445 815 C 435 801 427 772 421 730 C 415 688 412 633 412 567 C 412 457 416 378 426 328 C 433 290 457 272 498 272 C 523 272 541 278 552 290 C 562 302 570 329 574 371 C 578 413 580 479 580 567 C 580 640 576 703 569 756 C 562 809 538 836 496 836 Z" unicode="b" />
<glyph horiz-adv-x="930" d="M 909 621 L 557 621 C 557 701 555 751 551 769 C 547 787 540 803 530 816 C 520 829 503 836 481 836 C 440 836 416 814 408 770 C 399 718 395 649 395 563 C 395 473 397 405 403 360 C 409 312 434 289 477 289 C 510 289 532 302 544 328 C 555 354 561 412 561 500 L 905 500 C 905 377 898 290 884 239 C 870 187 846 142 811 103 C 776 63 731 34 677 15 C 622 -4 557 -14 481 -14 C 364 -14 271 7 202 49 C 133 91 86 153 62 236 C 37 319 25 429 25 565 C 25 680 34 775 54 849 C 73 923 101 979 138 1019 C 175 1059 223 1089 282 1111 C 341 1132 406 1143 477 1143 C 579 1143 662 1126 727 1093 C 791 1059 840 1003 874 924 C 884 899 893 858 899 800 C 905 742 909 683 909 621 Z" unicode="c" />
<glyph horiz-adv-x="973" d="M 350 1141 C 447 1141 518 1112 563 1055 L 563 1636 L 936 1636 L 936 190 C 936 154 940 90 948 0 L 629 0 L 588 82 C 544 22 468 -8 360 -8 C 241 -8 155 35 103 122 C 51 209 25 357 25 567 C 25 713 36 825 58 903 C 80 981 117 1040 168 1080 C 219 1120 280 1141 350 1141 Z M 483 838 C 450 838 427 824 414 797 C 401 770 395 691 395 561 C 395 465 397 401 402 369 C 407 337 415 315 427 303 C 438 291 456 285 481 285 C 524 285 549 307 556 351 C 563 395 567 465 567 561 C 567 660 563 732 557 778 C 555 792 547 806 534 819 C 521 831 504 838 483 838 Z" unicode="d" />
<glyph horiz-adv-x="940" d="M 915 389 C 906 291 884 212 849 154 C 814 95 765 52 703 25 C 640 -2 566 -16 481 -16 C 316 -16 198 29 128 119 C 58 209 23 357 23 563 C 23 708 39 821 73 903 C 107 984 158 1044 226 1084 C 294 1123 379 1143 483 1143 C 577 1143 659 1122 728 1080 C 796 1038 846 977 876 897 C 906 817 921 687 921 507 L 920 444 L 395 444 L 395 398 C 395 346 401 311 415 294 C 429 276 451 268 481 268 C 507 268 528 276 542 293 C 556 310 563 342 563 389 L 915 389 Z M 561 682 C 561 752 554 798 541 819 C 527 839 506 850 477 850 C 445 850 423 838 409 816 C 395 793 389 748 389 682 L 561 682 Z" unicode="e" />
<glyph horiz-adv-x="610" d="M 602 801 L 475 801 L 475 0 L 96 0 L 96 801 L 8 801 L 8 1126 L 96 1126 L 96 1319 C 96 1425 124 1506 181 1562 C 238 1617 322 1645 434 1645 C 506 1645 564 1643 608 1640 L 608 1343 C 591 1346 571 1348 547 1348 C 522 1348 503 1340 491 1325 C 479 1309 473 1293 473 1276 L 473 1124 L 602 1124 L 602 801 Z" unicode="f" />
<glyph horiz-adv-x="1047" d="M 516 1145 C 657 1145 759 1117 823 1061 C 866 1109 937 1133 1035 1133 L 1051 1133 L 1051 918 L 924 920 C 943 884 953 830 953 759 C 951 676 940 614 922 572 C 904 530 876 495 840 467 C 804 438 759 416 707 402 C 655 388 594 381 526 381 C 486 381 450 384 420 390 C 390 396 368 403 356 412 C 331 409 319 397 319 377 C 319 362 326 352 342 347 C 358 342 392 340 445 340 L 553 340 C 721 338 844 312 923 262 C 1002 212 1042 135 1042 33 C 1042 -82 997 -169 909 -227 C 820 -285 690 -315 518 -315 C 337 -315 207 -296 129 -260 C 51 -224 12 -168 12 -92 C 12 -36 26 7 54 37 C 82 67 120 90 168 106 C 120 112 82 131 55 164 C 27 197 14 239 14 291 C 14 337 30 375 64 405 C 97 435 140 457 193 471 C 150 501 120 536 103 576 C 86 616 78 662 78 714 L 78 763 L 80 844 C 83 900 103 951 140 997 C 176 1043 227 1080 291 1106 C 355 1132 430 1145 516 1145 Z M 518 881 C 477 881 455 859 453 815 L 451 688 L 451 653 C 452 637 458 622 470 610 C 481 598 497 592 518 592 C 535 592 549 595 559 603 C 569 610 577 620 581 634 C 585 648 587 698 587 786 L 586 821 C 582 861 559 881 518 881 Z M 512 -63 C 581 -63 630 -58 660 -50 C 690 -42 705 -26 705 -4 C 705 15 694 28 674 36 C 653 44 604 49 528 51 L 448 54 L 379 57 C 363 51 352 43 344 34 C 336 25 332 12 332 -4 C 332 -24 345 -39 372 -49 C 398 -58 445 -63 512 -63 Z" unicode="g" />
<glyph horiz-adv-x="965" d="M 930 0 L 549 0 L 547 97 L 547 758 C 547 801 527 823 489 823 C 444 823 422 795 422 739 L 422 0 L 43 0 L 43 1636 L 420 1636 L 420 1020 C 430 1054 457 1083 501 1107 C 545 1131 595 1143 653 1143 C 745 1143 813 1116 858 1063 C 903 1009 926 927 926 815 L 926 474 C 926 358 926 253 927 159 C 927 65 928 12 930 0 Z" unicode="h" />
<glyph horiz-adv-x="477" d="M 436 1174 L 43 1174 L 43 1513 L 436 1513 L 436 1174 Z M 442 0 L 59 0 C 53 0 49 5 47 15 C 45 25 45 46 45 78 L 45 1126 L 434 1126 L 434 76 C 434 46 434 26 435 17 C 435 7 438 2 442 0 Z" unicode="i" />
<glyph horiz-adv-x="481" d="M 440 1174 L 47 1174 L 47 1513 L 440 1513 L 440 1174 Z M 436 -39 C 436 -143 406 -225 346 -283 C 286 -341 202 -371 94 -371 C -8 -371 -77 -368 -113 -362 L -113 -70 L -49 -68 C 16 -68 49 -33 49 35 L 49 1126 L 436 1126 L 436 -39 Z" unicode="j" />
<glyph horiz-adv-x="991" d="M 993 0 L 602 0 L 479 403 L 422 324 L 422 0 L 43 0 L 43 1636 L 422 1636 L 422 803 L 598 1126 L 985 1126 L 764 705 L 993 0 Z" unicode="k" />
<glyph horiz-adv-x="463" d="M 428 0 L 47 0 C 43 0 41 29 41 88 L 41 1536 C 41 1585 39 1618 35 1634 L 418 1634 C 418 1632 418 1624 420 1612 C 421 1600 422 1584 422 1565 L 422 78 C 422 30 424 4 428 0 Z" unicode="l" />
<glyph horiz-adv-x="1432" d="M 1032 0 C 1029 0 1028 147 1028 441 L 1028 758 C 1028 801 1009 823 973 823 C 951 823 935 815 925 800 C 914 784 909 767 909 748 L 909 0 L 541 0 L 541 760 C 541 802 523 823 487 823 C 465 823 449 814 437 798 C 425 782 420 763 420 743 L 420 0 L 43 0 L 43 1126 L 410 1126 L 410 1018 C 428 1057 459 1088 503 1110 C 547 1132 601 1143 664 1143 C 717 1143 762 1130 800 1106 C 838 1082 865 1048 881 1004 C 919 1098 1007 1145 1143 1145 C 1229 1145 1292 1120 1332 1072 C 1372 1024 1393 958 1393 874 L 1393 261 C 1393 87 1394 0 1397 0 L 1032 0 Z" unicode="m" />
<glyph horiz-adv-x="967" d="M 934 0 L 557 0 C 553 2 551 17 550 45 C 549 73 548 106 548 145 C 547 183 547 280 547 435 L 547 743 C 547 771 542 791 533 804 C 524 816 509 823 489 823 C 444 823 422 790 422 725 L 422 0 L 43 0 L 43 1126 L 410 1126 L 410 1016 C 426 1054 455 1084 498 1108 C 540 1131 592 1143 653 1143 C 741 1143 808 1117 854 1066 C 900 1015 924 940 924 840 L 924 489 C 924 381 924 293 924 227 C 924 161 925 106 927 64 C 928 21 930 0 934 0 Z" unicode="n" />
<glyph horiz-adv-x="963" d="M 938 567 C 938 415 921 301 887 225 C 853 148 802 89 735 48 C 667 6 581 -14 477 -14 C 369 -14 280 8 210 52 C 139 96 90 160 63 242 C 36 324 23 432 23 567 C 23 702 37 809 65 889 C 93 968 143 1030 217 1075 C 291 1120 379 1143 483 1143 C 589 1143 677 1122 745 1082 C 813 1041 863 980 893 899 C 923 818 938 707 938 567 Z M 569 561 C 569 653 566 723 560 769 C 554 815 529 838 483 838 C 450 838 427 824 414 796 C 401 768 395 708 395 616 L 395 561 C 395 427 401 347 415 323 C 428 299 450 287 481 287 C 505 287 524 294 538 308 C 552 322 560 350 564 392 C 567 434 569 490 569 561 Z" unicode="o" />
<glyph horiz-adv-x="989" d="M 965 578 C 965 366 937 216 881 128 C 825 40 741 -4 629 -4 C 533 -4 462 16 416 57 L 416 -334 L 43 -334 L 43 1126 L 408 1126 L 408 1030 C 425 1063 454 1090 494 1111 C 534 1132 583 1143 641 1143 C 754 1143 836 1103 888 1024 C 939 944 965 796 965 578 Z M 580 567 C 580 650 576 715 570 761 C 563 807 539 831 498 831 C 456 831 432 809 424 765 C 416 721 412 655 412 567 C 412 424 418 341 431 317 C 443 293 465 281 496 281 C 512 281 524 283 534 289 C 544 295 552 306 559 322 C 566 338 571 366 575 408 C 578 449 580 502 580 567 Z" unicode="p" />
<glyph horiz-adv-x="983" d="M 950 -334 L 578 -334 L 571 -326 L 571 74 C 529 19 458 -8 360 -8 C 280 -8 216 11 167 49 C 118 87 82 147 59 227 C 36 307 25 421 25 567 C 25 708 37 819 61 900 C 85 981 123 1041 175 1080 C 227 1119 292 1139 371 1139 C 425 1139 467 1130 498 1114 C 529 1098 555 1072 575 1036 L 575 1052 L 578 1126 L 946 1126 L 946 -197 L 950 -334 Z M 569 569 C 569 697 562 774 548 800 C 534 825 513 838 483 838 C 446 838 422 820 411 784 C 400 748 395 676 395 569 C 395 513 396 461 399 414 C 401 366 406 336 412 324 C 418 311 427 301 439 295 C 450 288 464 285 481 285 C 525 285 550 310 558 360 C 565 410 569 480 569 569 Z" unicode="q" />
<glyph horiz-adv-x="696" d="M 692 1135 L 692 778 C 653 793 607 801 555 801 C 513 801 481 790 459 768 C 437 746 426 706 426 649 L 426 0 L 43 0 L 43 1126 L 418 1126 L 418 1012 C 425 1050 447 1082 483 1106 C 519 1130 562 1143 612 1143 C 649 1143 676 1140 692 1135 Z" unicode="r" />
<glyph horiz-adv-x="885" d="M 864 317 C 864 209 828 126 758 68 C 688 9 587 -20 455 -20 C 355 -20 272 -8 207 16 C 142 40 94 76 62 124 C 30 172 15 244 15 340 L 16 369 L 367 369 C 367 319 372 288 384 277 C 395 265 414 260 440 260 C 482 260 504 279 504 317 C 504 339 497 358 484 372 C 471 386 446 400 410 414 L 254 469 C 174 495 116 537 79 593 C 41 649 23 725 23 823 C 23 921 58 999 130 1057 C 201 1115 300 1145 426 1145 C 521 1145 600 1132 663 1106 C 725 1080 771 1040 799 988 C 827 936 842 858 842 754 L 496 754 L 492 805 C 488 832 469 846 434 846 C 392 846 371 829 371 795 C 371 777 376 764 387 756 C 398 747 417 738 444 729 L 633 662 C 713 632 772 589 809 535 C 845 481 864 408 864 317 Z" unicode="s" />
<glyph horiz-adv-x="639" d="M 618 801 L 469 801 L 469 360 C 469 334 473 317 482 308 C 491 299 505 295 524 295 C 559 295 586 297 606 303 L 606 6 C 560 -7 486 -14 383 -14 C 289 -14 216 13 165 67 C 113 121 88 199 88 299 L 88 801 L 6 801 L 6 1126 L 84 1126 C 88 1126 91 1200 94 1350 L 459 1366 L 459 1124 L 618 1124 L 618 801 Z" unicode="t" />
<glyph horiz-adv-x="961" d="M 926 0 L 559 0 L 553 68 C 525 40 494 21 460 9 C 426 -2 385 -8 338 -8 C 236 -8 161 21 112 80 C 63 139 39 228 39 346 L 39 527 L 35 1126 L 416 1126 L 416 371 C 416 339 420 317 430 306 C 440 294 455 289 477 289 C 498 289 514 295 526 309 C 537 323 543 347 543 381 L 543 1126 L 920 1126 L 920 133 C 920 68 922 24 926 0 Z" unicode="u" />
<glyph horiz-adv-x="971" d="M 965 1126 L 727 0 L 248 0 L 2 1126 L 387 1126 L 489 410 L 590 1126 L 965 1126 Z" unicode="v" />
<glyph horiz-adv-x="1491" d="M 1489 1126 L 1282 0 L 831 0 L 806 133 L 762 381 C 754 427 749 491 745 571 C 739 457 728 358 714 274 C 700 190 684 99 666 0 L 215 0 L 2 1126 L 385 1126 L 479 373 L 555 1126 L 940 1126 L 1028 373 L 1110 1126 L 1489 1126 Z" unicode="w" />
<glyph horiz-adv-x="946" d="M 485 877 L 563 1126 L 928 1126 L 700 567 L 942 0 L 537 0 L 457 227 L 377 0 L 0 0 L 240 535 L 12 1126 L 410 1126 L 485 877 Z" unicode="x" />
<glyph horiz-adv-x="1001" d="M 999 1126 L 598 -334 L 219 -334 L 319 6 L 2 1126 L 387 1126 L 393 1085 L 504 461 L 595 1004 L 614 1126 L 999 1126 Z" unicode="y" />
<glyph horiz-adv-x="854" d="M 834 0 L 23 0 L 23 307 L 397 807 L 37 807 L 37 1126 L 827 1126 L 827 819 L 451 319 L 834 319 L 834 0 Z" unicode="z" />
<glyph horiz-adv-x="684" d="M 655 -338 L 475 -338 C 375 -338 296 -314 236 -268 C 176 -221 147 -157 147 -76 C 147 -8 154 75 170 175 C 185 274 193 345 193 387 C 193 451 179 498 152 526 C 124 554 83 569 27 569 L 27 897 C 86 898 129 910 157 934 C 185 958 199 997 199 1053 C 199 1097 191 1150 175 1212 C 158 1272 150 1328 150 1380 C 150 1455 179 1516 238 1563 C 296 1610 371 1634 461 1634 L 655 1634 L 655 1333 C 587 1333 541 1325 519 1309 C 497 1293 486 1264 486 1223 L 487 1200 L 497 1146 C 511 1084 520 1041 524 1017 C 528 993 530 970 530 950 C 530 824 462 753 328 735 C 392 727 441 700 477 655 C 512 609 530 551 530 481 C 530 435 524 370 512 288 C 494 173 486 104 486 81 C 486 38 497 9 520 -6 C 542 -21 582 -29 640 -29 L 655 -29 L 655 -338 Z" unicode="{" />
<glyph horiz-adv-x="633" d="M 463 -410 L 172 -410 L 172 1638 L 463 1638 L 463 -410 Z" unicode="|" />
<glyph horiz-adv-x="684" d="M 27 -338 L 27 -29 L 42 -29 C 100 -29 140 -21 162 -5 C 184 11 195 41 195 86 C 195 108 187 176 171 288 C 158 370 152 435 152 481 C 152 553 169 611 204 656 C 239 700 289 727 354 735 C 219 753 152 824 152 950 C 152 986 158 1031 171 1084 L 185 1146 C 192 1176 196 1201 196 1223 C 196 1265 184 1293 162 1309 C 139 1325 94 1333 27 1333 L 27 1634 L 221 1634 C 311 1634 385 1610 444 1563 C 502 1516 532 1455 532 1380 C 532 1328 524 1272 508 1212 C 491 1150 483 1097 483 1053 C 483 998 497 959 525 935 C 553 911 597 898 657 897 L 657 569 C 599 569 556 554 529 526 C 502 497 489 451 489 387 C 489 345 496 274 512 175 C 527 75 535 -8 535 -76 C 535 -156 505 -220 446 -267 C 386 -314 307 -338 207 -338 L 27 -338 Z" unicode="}" />
<glyph horiz-adv-x="1159" d="M 377 709 C 350 709 326 697 305 673 C 283 649 267 617 256 575 L 4 686 C 72 906 195 1016 375 1016 C 427 1016 474 1005 518 984 C 561 962 615 922 679 864 C 721 824 763 805 803 805 C 831 805 856 816 878 839 C 900 861 916 892 928 930 L 1145 784 C 1113 691 1069 620 1011 572 C 953 524 884 500 803 500 C 748 500 699 510 655 530 C 611 550 560 589 500 646 C 474 669 451 685 433 695 C 415 704 396 709 377 709 Z" unicode="~" />
<glyph horiz-adv-x="674" d="M 526 766 L 651 766 L 651 504 L 528 504 L 528 -12 L 338 -254 L 152 -12 L 152 504 L 25 504 L 25 766 L 154 766 L 154 911 L 25 911 L 25 1171 L 152 1171 L 152 1624 L 528 1624 L 528 1171 L 651 1171 L 651 911 L 526 911 L 526 766 Z" unicode="‡" />
<glyph horiz-adv-x="1231" d="M 621 344 C 436 344 293 387 192 474 C 91 561 39 687 37 852 L 35 992 L 37 1171 C 41 1324 92 1442 192 1524 C 292 1606 433 1647 616 1647 C 798 1647 938 1606 1037 1525 C 1136 1443 1188 1325 1194 1171 L 1195 1103 L 1195 938 L 1194 852 C 1191 687 1140 561 1042 474 C 943 387 803 344 621 344 Z M 1052 956 L 1052 1112 L 1051 1169 C 1042 1389 897 1499 616 1499 C 475 1499 367 1471 292 1416 C 217 1361 179 1279 178 1171 L 177 1097 L 177 1015 L 178 889 C 182 619 328 485 616 485 C 721 485 805 500 869 530 C 933 560 979 606 1008 669 C 1037 731 1052 827 1052 956 Z M 557 791 L 557 653 L 301 653 L 301 1325 L 657 1325 C 723 1325 780 1314 827 1294 C 873 1273 908 1243 932 1204 C 955 1165 967 1121 967 1071 C 967 1013 959 963 943 922 C 927 880 898 848 858 825 C 817 802 773 791 727 791 L 557 791 Z M 709 1053 C 709 1104 682 1130 629 1130 L 557 1130 L 557 977 L 641 977 C 668 977 686 983 695 997 C 704 1011 709 1029 709 1053 Z" unicode="℗" />
<glyph horiz-adv-x="492" d="M 446 590 L 45 590 L 45 1044 L 446 1044 L 446 590 Z" unicode="∙" />
<glyph horiz-adv-x="1536" d="M 1072 396 C 973 396 896 424 840 480 C 813 509 789 545 768 588 C 679 460 570 396 440 396 C 336 396 252 433 190 508 C 127 582 96 682 96 808 C 96 925 133 1022 208 1100 C 282 1177 369 1216 468 1216 C 544 1216 608 1199 660 1166 C 712 1133 752 1087 780 1028 C 855 1153 962 1216 1100 1216 C 1198 1216 1280 1181 1346 1112 C 1411 1042 1444 945 1444 820 C 1444 700 1409 599 1340 518 C 1270 436 1181 396 1072 396 Z M 472 1048 C 408 1048 356 1026 316 982 C 276 938 256 874 256 792 C 256 709 271 648 302 610 C 332 571 381 552 448 552 C 566 552 650 637 700 808 C 653 968 577 1048 472 1048 Z M 1072 556 C 1128 556 1176 579 1218 626 C 1259 672 1280 736 1280 816 C 1280 882 1264 940 1234 988 C 1203 1036 1152 1060 1080 1060 C 1027 1060 984 1043 951 1010 C 918 977 884 908 848 804 C 856 702 880 637 920 608 C 962 573 1013 556 1072 556 Z" unicode="∞" />
<glyph horiz-adv-x="1178" d="M 1182 1640 L 791 -51 L 219 -51 L 16 659 L 391 659 L 479 324 L 754 1640 L 1182 1640 Z" unicode="√" />
<glyph horiz-adv-x="162" d="" unicode=" " />
<glyph horiz-adv-x="508" d="M 66 1636 L 446 1636 L 446 1200 L 66 1200 L 66 1636 Z M 45 0 L 90 1126 L 424 1126 L 469 0 L 45 0 Z" unicode="¡" />
<glyph horiz-adv-x="973" d="M 385 1389 L 385 1511 L 598 1511 L 598 1391 C 758 1373 863 1304 913 1182 C 921 1162 930 1118 939 1052 C 947 985 952 925 952 872 L 590 872 L 590 950 L 588 1032 C 580 1085 557 1112 520 1112 C 501 1112 486 1107 474 1097 C 462 1087 455 1070 451 1044 C 443 934 440 857 440 815 C 440 775 440 731 442 683 C 444 635 447 597 451 570 C 455 542 461 523 471 511 C 481 499 496 494 518 494 C 533 494 545 497 554 505 C 563 512 570 526 576 546 C 582 566 585 600 587 650 C 589 699 590 733 590 752 L 952 752 C 952 678 947 610 937 547 C 927 483 913 436 895 406 C 876 375 851 347 821 322 C 791 297 758 278 722 264 C 686 250 644 239 598 233 L 598 84 L 385 84 L 385 236 C 258 252 167 302 111 386 C 55 469 27 612 27 815 C 27 921 36 1011 55 1085 C 74 1159 97 1213 125 1249 C 153 1285 188 1314 232 1338 C 276 1362 327 1379 385 1389 Z" unicode="¢" />
<glyph horiz-adv-x="1008" d="M 166 854 C 90 965 51 1065 49 1153 L 49 1305 C 50 1421 89 1508 167 1566 C 244 1624 356 1653 502 1653 C 647 1653 758 1624 835 1568 C 912 1511 954 1420 961 1296 L 961 1264 L 963 995 L 963 963 L 588 963 L 588 1223 C 586 1264 581 1293 571 1310 C 561 1326 542 1335 514 1337 C 467 1337 444 1305 444 1243 L 444 1110 C 444 1062 449 1019 460 981 C 471 942 493 900 526 854 L 922 854 L 922 553 L 604 553 L 606 520 C 606 430 571 370 502 342 L 948 342 L 948 0 L 37 0 L 37 352 C 99 362 144 375 173 389 C 202 403 224 421 238 441 C 252 461 259 484 259 509 C 259 521 257 536 254 553 L 51 553 L 51 854 L 166 854 Z" unicode="£" />
<glyph horiz-adv-x="1152" d="M 1056 392 L 940 284 L 740 500 C 692 468 636 452 572 452 C 510 452 456 468 408 500 L 208 284 L 92 392 L 300 608 C 281 634 268 660 262 686 C 255 711 252 742 252 780 C 252 848 268 906 300 952 L 92 1168 L 208 1276 L 408 1060 C 456 1092 510 1108 572 1108 C 636 1108 692 1092 740 1060 L 944 1276 L 1060 1156 L 852 952 C 870 925 883 898 890 872 C 896 845 900 814 900 780 C 900 716 882 658 848 608 L 1056 392 Z M 748 780 C 748 833 731 876 698 910 C 664 943 622 960 572 960 C 521 960 480 943 448 910 C 416 876 400 833 400 780 C 400 726 416 684 450 652 C 483 620 524 604 572 604 C 625 604 668 620 700 652 C 732 684 748 726 748 780 Z" unicode="¤" />
<glyph horiz-adv-x="1196" d="M 381 408 L 49 408 L 49 629 L 381 629 L 381 668 L 0 1634 L 428 1634 C 472 1513 509 1403 539 1305 C 569 1207 586 1144 588 1116 C 589 1143 606 1205 639 1302 C 672 1399 714 1510 764 1634 L 1196 1634 L 799 680 L 799 629 L 1143 629 L 1143 408 L 799 408 L 799 356 L 1143 356 L 1143 133 L 799 133 L 799 0 L 381 0 L 381 133 L 49 133 L 49 356 L 381 356 L 381 408 Z" unicode="¥" />
<glyph horiz-adv-x="633" d="M 463 731 L 172 731 L 172 1638 L 463 1638 L 463 731 Z M 463 -410 L 172 -410 L 172 455 L 463 455 L 463 -410 Z" unicode="¦" />
<glyph horiz-adv-x="829" d="M 190 1141 C 156 1167 133 1195 120 1227 C 107 1258 101 1295 101 1339 L 101 1361 C 101 1381 102 1395 104 1403 C 110 1473 142 1529 201 1570 C 259 1611 333 1632 422 1632 C 499 1632 560 1622 606 1602 C 652 1582 687 1551 713 1510 C 738 1468 751 1403 751 1313 L 750 1290 L 498 1290 L 498 1360 C 498 1406 480 1430 446 1430 C 430 1430 418 1426 410 1420 C 402 1414 396 1402 393 1386 L 393 1341 C 393 1314 395 1295 400 1285 C 405 1275 414 1265 426 1255 C 438 1245 456 1235 481 1223 C 494 1214 525 1198 573 1176 C 649 1140 701 1099 731 1054 C 761 1009 776 957 776 897 C 776 847 766 806 748 772 C 722 709 670 665 592 641 C 730 559 800 462 800 349 L 800 294 C 800 196 769 119 708 65 C 646 11 556 -16 436 -16 C 315 -16 224 8 162 57 C 100 106 63 179 51 276 L 47 381 L 362 379 L 362 301 C 363 271 369 250 380 238 C 390 225 408 219 432 219 C 453 219 470 224 482 234 C 494 244 500 262 500 289 L 500 340 C 497 368 488 393 473 413 C 458 433 433 453 397 475 L 364 497 C 301 539 247 572 201 598 C 166 616 136 639 110 667 C 84 695 65 726 54 760 C 43 794 38 840 38 898 C 40 1012 90 1093 190 1141 Z M 430 786 C 448 786 464 795 477 813 C 490 831 497 852 497 875 C 497 895 493 910 485 920 C 469 946 439 965 395 979 C 383 979 371 974 361 964 C 351 954 344 941 340 926 C 335 915 333 903 333 890 C 333 864 339 844 353 828 C 366 812 392 798 430 786 Z" unicode="§" />
<glyph horiz-adv-x="901" d="M 793 1202 L 506 1202 L 506 1505 L 793 1505 L 793 1202 Z M 397 1202 L 111 1202 L 111 1505 L 397 1505 L 397 1202 Z" unicode="¨" />
<glyph horiz-adv-x="1231" d="M 621 344 C 436 344 293 387 192 474 C 91 561 39 687 37 852 L 35 992 L 37 1171 C 41 1324 92 1442 192 1524 C 292 1606 433 1647 616 1647 C 798 1647 938 1606 1037 1525 C 1136 1443 1188 1325 1194 1171 L 1195 1103 L 1195 938 L 1194 852 C 1191 687 1140 561 1042 474 C 943 387 803 344 621 344 Z M 1052 956 L 1052 1112 L 1051 1169 C 1042 1389 897 1499 616 1499 C 475 1499 367 1471 292 1416 C 217 1361 179 1279 178 1171 L 177 1097 L 177 1015 L 178 889 C 182 619 328 485 616 485 C 721 485 805 500 869 530 C 933 560 979 606 1008 669 C 1037 731 1052 827 1052 956 Z M 948 924 L 944 819 C 941 764 909 720 847 686 C 785 652 708 635 614 635 C 556 635 507 640 465 651 C 423 661 389 678 361 700 C 333 722 313 749 303 781 C 292 812 287 862 287 930 L 287 981 C 287 1067 289 1125 295 1153 C 299 1206 332 1250 394 1284 C 455 1318 535 1335 635 1335 C 686 1335 731 1329 771 1317 C 810 1305 843 1288 870 1267 C 896 1246 916 1222 929 1195 C 941 1168 948 1116 948 1038 L 705 1038 L 705 1092 C 697 1132 673 1153 631 1153 C 602 1153 581 1145 568 1131 C 555 1117 548 1100 547 1081 C 546 1061 545 1029 545 985 C 545 911 547 867 552 851 C 557 835 566 824 578 818 C 590 812 607 809 631 809 C 681 809 707 831 709 877 L 709 924 L 948 924 Z" unicode="©" />
<glyph horiz-adv-x="928" d="M 893 508 L 524 508 L 518 592 C 470 529 393 498 285 498 C 205 498 142 517 96 556 C 50 595 24 651 18 725 L 16 800 C 16 836 17 869 20 897 C 29 973 63 1037 122 1089 C 181 1141 267 1176 381 1194 L 514 1210 L 516 1256 L 516 1298 C 514 1316 510 1330 503 1339 C 495 1347 483 1352 467 1352 C 447 1352 432 1345 423 1331 C 414 1317 410 1285 410 1235 L 57 1235 C 57 1343 73 1422 105 1474 C 137 1525 186 1565 250 1593 C 314 1621 389 1636 475 1636 C 735 1636 869 1537 879 1341 L 880 1267 L 876 965 L 876 897 L 877 752 L 877 673 C 877 568 882 513 893 508 Z M 899 160 L 27 160 L 27 459 L 899 459 L 899 160 Z M 514 995 L 490 995 L 479 993 C 450 987 430 977 418 963 C 406 949 399 934 397 918 L 394 886 C 394 849 399 824 409 810 C 419 796 435 788 455 788 C 471 788 485 794 498 807 C 508 821 514 844 514 874 L 515 900 L 515 936 L 514 995 Z" unicode="ª" />
<glyph horiz-adv-x="995" d="M 961 209 L 508 573 L 508 856 L 961 1219 L 961 852 L 801 715 L 961 578 L 961 209 Z M 485 209 L 33 573 L 33 856 L 485 1219 L 485 852 L 326 715 L 485 578 L 485 209 Z" unicode="«" />
<glyph horiz-adv-x="1536" d="M 1116 352 L 1116 728 L 212 728 L 212 920 L 1296 920 L 1296 352 L 1116 352 Z" unicode="¬" />
<glyph horiz-adv-x="698" d="M 678 598 L 20 598 L 20 989 L 678 989 L 678 598 Z" unicode="­" />
<glyph horiz-adv-x="1231" d="M 621 344 C 436 344 293 387 192 474 C 91 561 39 687 37 852 L 35 992 L 37 1171 C 41 1324 92 1442 192 1524 C 292 1606 433 1647 616 1647 C 798 1647 938 1606 1037 1525 C 1136 1443 1188 1325 1194 1171 L 1195 1103 L 1195 938 L 1194 852 C 1191 687 1140 561 1042 474 C 943 387 803 344 621 344 Z M 1052 956 L 1052 1112 L 1051 1169 C 1042 1389 897 1499 616 1499 C 475 1499 367 1471 292 1416 C 217 1361 179 1279 178 1171 L 177 1097 L 177 1015 L 178 889 C 182 619 328 485 616 485 C 721 485 805 500 869 530 C 933 560 979 606 1008 669 C 1037 731 1052 827 1052 956 Z M 963 653 L 709 653 L 606 860 L 551 860 L 551 653 L 295 653 L 295 1325 L 653 1325 C 761 1325 840 1306 888 1269 C 936 1232 961 1178 961 1108 C 961 1052 948 1006 924 970 C 900 934 867 911 825 903 L 963 653 Z M 702 1071 C 702 1123 672 1149 614 1149 L 551 1149 L 551 995 L 612 995 C 640 995 662 1000 678 1011 C 694 1022 702 1042 702 1071 Z" unicode="®" />
<glyph horiz-adv-x="901" d="M 793 1227 L 111 1227 L 111 1468 L 793 1468 L 793 1227 Z" unicode="¯" />
<glyph horiz-adv-x="627" d="M 309 1577 C 388 1577 456 1548 513 1490 C 569 1432 598 1363 598 1282 C 598 1202 569 1133 512 1076 C 455 1019 387 991 309 991 C 232 991 165 1019 109 1077 C 53 1134 25 1202 25 1282 C 25 1362 53 1432 109 1490 C 165 1548 231 1577 309 1577 Z M 309 1376 C 284 1376 262 1367 244 1350 C 226 1332 217 1310 217 1282 C 217 1257 226 1236 244 1218 C 262 1200 283 1192 309 1192 C 334 1192 356 1200 375 1217 C 393 1233 403 1255 403 1282 C 403 1310 394 1332 376 1350 C 358 1367 335 1376 309 1376 Z" unicode="°" />
<glyph horiz-adv-x="1536" d="M 672 352 L 672 764 L 200 764 L 200 936 L 672 936 L 672 1352 L 864 1352 L 864 936 L 1340 936 L 1340 764 L 864 764 L 864 352 L 672 352 Z M 204 24 L 204 216 L 1336 216 L 1336 24 L 204 24 Z" unicode="±" />
<glyph horiz-adv-x="758" d="M 684 795 L 72 795 L 72 971 C 84 985 102 1001 125 1020 C 243 1118 321 1192 359 1242 C 397 1291 416 1334 416 1372 L 416 1421 C 416 1455 401 1473 371 1473 C 356 1473 346 1469 340 1462 C 334 1455 331 1443 330 1427 L 330 1321 L 72 1321 L 74 1444 C 77 1500 107 1546 165 1582 C 223 1618 297 1636 389 1636 C 581 1636 682 1572 692 1446 L 692 1402 L 690 1356 C 686 1314 669 1269 639 1221 C 608 1173 564 1122 507 1067 L 426 985 L 684 985 L 684 795 Z" unicode="²" />
<glyph horiz-adv-x="784" d="M 494 1233 C 562 1231 615 1215 654 1186 C 692 1157 712 1114 712 1057 L 709 979 C 704 920 675 873 622 837 C 568 801 490 784 387 784 C 293 784 219 799 164 829 C 108 859 79 902 76 958 L 70 1065 L 332 1065 L 332 973 C 332 949 349 938 383 938 C 402 938 415 941 423 949 C 430 957 434 969 434 987 L 434 1063 C 434 1084 428 1098 417 1106 C 405 1114 380 1118 340 1120 L 221 1120 L 221 1303 L 352 1303 C 380 1304 399 1308 411 1316 C 422 1323 428 1337 428 1358 L 428 1425 C 428 1439 424 1449 417 1455 C 409 1461 398 1464 383 1464 C 356 1464 342 1451 340 1425 L 338 1358 L 90 1358 L 95 1440 C 98 1502 126 1551 180 1587 C 233 1622 304 1640 393 1640 C 482 1640 553 1624 606 1592 C 659 1560 686 1514 688 1456 L 690 1405 C 688 1356 669 1316 634 1285 C 598 1254 552 1237 494 1233 Z" unicode="³" />
<glyph horiz-adv-x="901" d="M 246 1202 L 393 1542 L 793 1542 L 592 1202 L 246 1202 Z" unicode="´" />
<glyph horiz-adv-x="1408" d="M 252 -424 C 214 -424 186 -413 168 -392 C 149 -370 140 -333 140 -280 C 140 -176 145 -49 156 100 C 166 233 172 309 172 328 L 176 356 L 176 1176 L 368 1176 L 368 320 C 368 258 395 210 450 176 C 504 141 564 124 628 124 C 716 124 792 146 858 190 C 923 234 973 297 1008 380 L 1008 1176 L 1200 1176 L 1200 308 L 1220 0 L 1056 0 L 1020 176 C 974 104 913 50 836 14 C 758 -22 670 -40 572 -40 C 537 -40 494 -31 444 -14 C 393 3 353 28 324 60 C 324 1 333 -56 352 -112 C 370 -168 380 -218 380 -264 C 380 -370 337 -424 252 -424 Z" unicode="µ" />
<glyph horiz-adv-x="989" d="M 936 1632 L 936 -213 L 811 -213 L 811 1364 L 758 1364 L 758 -213 L 629 -213 L 629 500 C 606 469 572 444 527 425 C 482 406 431 397 375 397 C 327 397 283 403 243 417 C 203 431 168 451 139 477 C 109 503 88 534 74 568 C 60 602 49 663 42 751 C 34 839 31 931 31 1028 C 31 1168 37 1282 50 1368 C 62 1454 97 1522 154 1571 C 211 1620 280 1645 360 1645 C 422 1645 478 1634 527 1614 C 576 1594 610 1566 629 1532 L 637 1632 L 936 1632 Z M 631 1253 C 629 1309 605 1337 559 1337 C 529 1337 509 1329 499 1313 C 489 1297 481 1266 477 1218 C 473 1170 471 1120 471 1070 L 471 1014 C 471 898 475 814 483 760 C 493 723 515 705 551 705 C 599 705 625 730 629 782 L 631 886 L 631 1253 Z" unicode="¶" />
<glyph horiz-adv-x="492" d="M 446 590 L 45 590 L 45 1044 L 446 1044 L 446 590 Z" unicode="·" />
<glyph horiz-adv-x="901" d="M 438 -154 C 438 -128 430 -109 415 -95 C 400 -81 374 -74 336 -74 L 336 0 L 573 0 L 573 -41 C 627 -41 671 -56 703 -87 C 735 -118 752 -163 752 -221 C 752 -277 727 -323 678 -357 C 629 -391 560 -409 472 -409 C 412 -409 344 -399 270 -381 L 270 -205 C 292 -210 313 -213 334 -213 C 366 -213 391 -207 410 -197 C 428 -187 438 -172 438 -154 Z" unicode="¸" />
<glyph horiz-adv-x="672" d="M 510 795 L 252 795 L 252 1362 L 94 1356 L 94 1532 C 145 1532 190 1541 228 1559 C 266 1577 293 1602 307 1634 L 510 1634 L 510 795 Z" unicode="¹" />
<glyph horiz-adv-x="928" d="M 891 1075 C 891 951 879 852 856 780 C 837 695 792 627 720 577 C 648 527 559 502 453 502 C 346 502 258 525 190 573 C 122 620 76 690 53 784 C 31 885 20 982 20 1075 C 20 1126 24 1183 33 1245 C 41 1307 51 1353 61 1382 C 91 1466 141 1529 209 1573 C 277 1616 361 1638 459 1638 C 570 1638 660 1612 730 1562 C 799 1511 843 1438 862 1343 C 881 1248 891 1159 891 1075 Z M 901 154 L 27 154 L 27 459 L 901 459 L 901 154 Z M 524 1071 C 524 1207 519 1286 509 1307 C 499 1328 482 1339 457 1339 C 429 1339 410 1324 402 1296 C 393 1268 389 1193 389 1071 C 389 978 392 905 399 852 C 406 815 425 797 457 797 C 490 797 509 816 514 854 C 520 907 524 979 524 1071 Z" unicode="º" />
<glyph horiz-adv-x="995" d="M 518 215 L 518 584 L 674 721 L 518 858 L 518 1225 L 971 860 L 971 580 L 518 215 Z M 41 215 L 41 584 L 199 721 L 41 858 L 41 1225 L 496 860 L 496 580 L 41 215 Z" unicode="»" />
<glyph horiz-adv-x="1298" d="M 424 795 L 168 795 L 168 1362 L 8 1356 L 8 1532 C 57 1532 100 1540 138 1557 C 176 1574 204 1600 223 1634 L 424 1634 L 424 795 Z M 860 1634 C 774 1339 621 794 401 0 L 295 0 L 422 441 L 756 1634 L 860 1634 Z M 1268 154 L 1180 154 L 1180 0 L 926 0 L 926 156 L 594 156 L 594 342 L 909 836 L 1180 836 L 1180 334 L 1268 334 L 1268 154 Z M 926 334 L 926 485 L 829 334 L 926 334 Z" unicode="¼" />
<glyph horiz-adv-x="1296" d="M 422 795 L 166 795 L 166 1362 L 8 1356 L 8 1532 C 59 1532 104 1541 142 1559 C 180 1577 207 1602 221 1634 L 422 1634 L 422 795 Z M 825 1634 C 658 1065 505 520 365 0 L 258 0 C 328 235 418 551 529 947 C 640 1343 703 1572 719 1634 L 825 1634 Z M 1243 0 L 631 0 L 631 176 C 642 188 683 225 754 286 C 834 354 890 411 923 457 C 956 503 973 544 973 580 L 973 627 C 973 661 958 678 928 678 C 914 678 905 674 899 668 C 893 661 890 649 889 633 L 887 583 L 887 526 L 631 526 L 631 649 C 634 703 664 749 722 786 C 780 823 855 842 948 842 C 1138 842 1237 778 1247 651 L 1247 607 L 1245 561 C 1241 519 1225 475 1195 429 C 1165 382 1122 330 1064 272 L 985 190 L 1243 190 L 1243 0 Z" unicode="½" />
<glyph horiz-adv-x="1483" d="M 446 1233 C 512 1231 564 1216 604 1190 C 643 1164 664 1129 666 1087 L 669 1039 L 666 979 C 661 920 632 873 578 837 C 524 801 444 784 340 784 C 246 784 172 799 118 829 C 64 859 34 902 29 958 L 27 1033 L 25 1065 L 287 1065 L 287 973 C 287 949 304 938 338 938 C 357 938 370 941 377 949 C 383 957 387 969 387 987 L 387 1063 C 387 1085 381 1100 369 1107 C 357 1114 332 1118 293 1120 L 176 1120 L 176 1303 L 307 1303 C 334 1303 353 1307 364 1315 C 375 1323 381 1337 381 1358 L 381 1425 C 381 1439 377 1449 370 1455 C 363 1461 352 1464 338 1464 C 322 1464 310 1460 303 1452 C 296 1444 293 1412 293 1358 L 45 1358 C 45 1433 51 1484 63 1510 C 75 1536 94 1559 120 1579 C 146 1598 179 1613 217 1624 C 255 1634 299 1640 348 1640 C 436 1640 506 1624 559 1592 C 611 1560 639 1514 643 1456 L 643 1405 C 643 1357 625 1318 589 1286 C 553 1254 506 1237 446 1233 Z M 1034 1634 L 797 795 L 575 0 L 469 0 C 539 235 629 551 740 947 C 851 1343 914 1572 930 1634 L 1034 1634 Z M 1446 154 L 1358 154 L 1358 0 L 1104 0 L 1104 156 L 772 156 L 772 342 L 1087 836 L 1358 836 L 1358 334 L 1446 334 L 1446 154 Z M 1104 334 L 1104 485 L 1006 334 L 1104 334 Z" unicode="¾" />
<glyph horiz-adv-x="946" d="M 340 1636 L 727 1636 L 727 1200 L 340 1200 L 340 1636 Z M 374 1105 L 373 1128 L 698 1128 L 700 1068 C 700 928 659 808 578 708 C 554 678 531 650 510 624 C 489 598 471 572 457 546 C 442 520 434 491 434 461 L 434 358 C 436 314 456 293 496 293 C 534 293 554 314 557 356 L 559 502 L 922 502 C 922 416 919 342 915 281 C 911 220 890 167 852 123 C 814 78 762 44 696 20 C 630 -4 557 -16 477 -16 C 335 -16 227 9 153 60 C 78 111 37 182 31 274 L 29 368 L 31 465 C 33 511 47 556 73 601 C 99 645 146 703 214 775 C 268 833 308 888 334 941 C 360 994 373 1049 374 1105 Z" unicode="¿" />
<glyph horiz-adv-x="1124" d="M 469 403 L 414 0 L -2 0 L 276 1634 L 872 1634 L 1126 0 L 705 0 L 653 403 L 469 403 Z M 618 707 L 590 912 C 572 1024 563 1113 561 1180 C 558 1099 552 1029 543 969 L 502 707 L 618 707 Z M 835 1710 L 486 1710 L 288 2050 L 687 2050 L 835 1710 Z" unicode="À" />
<glyph horiz-adv-x="1124" d="M 469 403 L 414 0 L -2 0 L 276 1634 L 872 1634 L 1126 0 L 705 0 L 653 403 L 469 403 Z M 618 707 L 590 912 C 572 1024 563 1113 561 1180 C 558 1099 552 1029 543 969 L 502 707 L 618 707 Z M 288 1710 L 435 2050 L 835 2050 L 634 1710 L 288 1710 Z" unicode="Á" />
<glyph horiz-adv-x="1124" d="M 469 403 L 414 0 L -2 0 L 276 1634 L 872 1634 L 1126 0 L 705 0 L 653 403 L 469 403 Z M 618 707 L 590 912 C 572 1024 563 1113 561 1180 C 558 1099 552 1029 543 969 L 502 707 L 618 707 Z M 926 1712 L 621 1712 L 558 1831 L 494 1712 L 197 1712 L 373 2050 L 748 2050 L 926 1712 Z" unicode="Â" />
<glyph horiz-adv-x="1124" d="M 469 403 L 414 0 L -2 0 L 276 1634 L 872 1634 L 1126 0 L 705 0 L 653 403 L 469 403 Z M 618 707 L 590 912 C 572 1024 563 1113 561 1180 C 558 1099 552 1029 543 969 L 502 707 L 618 707 Z M 486 1804 C 472 1804 459 1797 447 1785 C 435 1772 428 1749 427 1716 L 185 1716 C 186 1828 207 1913 248 1972 C 289 2030 345 2060 415 2060 C 447 2060 477 2055 504 2047 C 530 2038 555 2021 579 1997 C 599 1976 613 1964 621 1960 C 628 1956 637 1954 648 1954 C 685 1954 705 1987 708 2054 L 939 2054 C 939 1944 919 1857 880 1794 C 840 1731 786 1700 718 1700 C 678 1700 648 1704 628 1713 C 607 1721 581 1740 551 1770 C 527 1792 505 1804 486 1804 Z" unicode="Ã" />
<glyph horiz-adv-x="1124" d="M 469 403 L 414 0 L -2 0 L 276 1634 L 872 1634 L 1126 0 L 705 0 L 653 403 L 469 403 Z M 618 707 L 590 912 C 572 1024 563 1113 561 1180 C 558 1099 552 1029 543 969 L 502 707 L 618 707 Z M 903 1710 L 616 1710 L 616 2013 L 903 2013 L 903 1710 Z M 507 1710 L 221 1710 L 221 2013 L 507 2013 L 507 1710 Z" unicode="Ä" />
<glyph horiz-adv-x="1124" d="M 332 1634 C 315 1667 307 1707 307 1753 C 307 1829 332 1893 384 1945 C 435 1997 498 2023 573 2023 C 647 2023 709 1997 761 1945 C 812 1893 838 1829 838 1753 C 838 1710 829 1670 813 1634 L 872 1634 L 1126 0 L 705 0 L 653 403 L 469 403 L 414 0 L -2 0 L 276 1634 L 332 1634 Z M 573 1833 C 552 1833 535 1825 521 1809 C 507 1793 500 1774 500 1753 C 500 1730 507 1711 521 1695 C 535 1679 552 1671 573 1671 C 591 1671 608 1678 624 1694 C 639 1710 647 1729 647 1753 C 647 1775 639 1793 624 1809 C 609 1825 592 1833 573 1833 Z M 618 707 L 590 912 C 572 1024 563 1113 561 1180 C 558 1099 552 1029 543 969 L 502 707 L 618 707 Z" unicode="Å" />
<glyph horiz-adv-x="1427" d="M 1409 1634 L 1409 1255 L 1034 1255 L 1034 999 L 1380 999 L 1380 643 L 1034 643 L 1034 371 L 1413 371 L 1413 0 L 623 0 L 623 360 L 473 360 L 416 0 L -2 0 L 338 1634 L 1409 1634 Z M 623 1298 L 592 1106 L 516 700 L 623 700 L 623 1298 Z" unicode="Æ" />
<glyph horiz-adv-x="1096" d="M 434 -10 C 334 4 253 40 191 96 C 128 152 85 234 62 342 C 38 450 27 609 27 821 C 27 923 30 1012 36 1086 C 42 1160 53 1237 70 1319 C 89 1422 144 1503 235 1561 C 326 1619 440 1649 578 1649 C 663 1649 737 1638 799 1616 C 861 1594 912 1560 954 1514 C 995 1468 1024 1412 1042 1346 C 1060 1280 1069 1160 1069 987 L 668 987 L 667 1041 C 665 1101 662 1146 658 1178 C 654 1210 644 1233 630 1248 C 616 1262 595 1270 569 1270 C 542 1270 521 1262 506 1246 C 490 1230 481 1210 477 1186 C 465 1105 459 986 459 829 C 459 725 461 634 466 556 C 470 478 476 429 484 407 C 492 385 503 370 519 362 C 534 354 551 350 571 350 C 622 350 651 376 657 428 C 665 488 670 556 670 631 L 1071 631 L 1071 581 C 1071 491 1067 413 1061 348 C 1055 283 1036 225 1004 173 C 972 121 928 80 872 48 C 815 16 748 -3 672 -12 L 672 -41 C 726 -41 769 -56 801 -87 C 833 -118 850 -163 850 -221 C 850 -278 825 -324 777 -358 C 728 -392 659 -409 570 -409 C 510 -409 443 -399 369 -381 L 369 -205 C 391 -210 412 -213 433 -213 C 465 -213 490 -207 509 -197 C 527 -187 537 -172 537 -154 C 537 -100 502 -74 434 -74 L 434 -10 Z" unicode="Ç" />
<glyph horiz-adv-x="946" d="M 926 0 L 51 0 L 51 1634 L 922 1634 L 922 1255 L 465 1255 L 465 1001 L 895 1001 L 895 643 L 465 643 L 465 371 L 926 371 L 926 0 Z M 746 1710 L 397 1710 L 199 2050 L 598 2050 L 746 1710 Z" unicode="È" />
<glyph horiz-adv-x="946" d="M 926 0 L 51 0 L 51 1634 L 922 1634 L 922 1255 L 465 1255 L 465 1001 L 895 1001 L 895 643 L 465 643 L 465 371 L 926 371 L 926 0 Z M 201 1710 L 348 2050 L 748 2050 L 547 1710 L 201 1710 Z" unicode="É" />
<glyph horiz-adv-x="946" d="M 926 0 L 51 0 L 51 1634 L 922 1634 L 922 1255 L 465 1255 L 465 1001 L 895 1001 L 895 643 L 465 643 L 465 371 L 926 371 L 926 0 Z M 837 1712 L 532 1712 L 469 1831 L 405 1712 L 108 1712 L 284 2050 L 659 2050 L 837 1712 Z" unicode="Ê" />
<glyph horiz-adv-x="946" d="M 926 0 L 51 0 L 51 1634 L 922 1634 L 922 1255 L 465 1255 L 465 1001 L 895 1001 L 895 643 L 465 643 L 465 371 L 926 371 L 926 0 Z M 814 1710 L 527 1710 L 527 2013 L 814 2013 L 814 1710 Z M 418 1710 L 132 1710 L 132 2013 L 418 2013 L 418 1710 Z" unicode="Ë" />
<glyph horiz-adv-x="532" d="M 481 0 L 53 0 L 53 1634 L 481 1634 L 481 0 Z M 541 1710 L 192 1710 L -6 2050 L 393 2050 L 541 1710 Z" unicode="Ì" />
<glyph horiz-adv-x="532" d="M 481 0 L 53 0 L 53 1634 L 481 1634 L 481 0 Z M -6 1710 L 141 2050 L 541 2050 L 340 1710 L -6 1710 Z" unicode="Í" />
<glyph horiz-adv-x="532" d="M 481 0 L 53 0 L 53 1634 L 481 1634 L 481 0 Z M 632 1712 L 327 1712 L 264 1831 L 200 1712 L -97 1712 L 79 2050 L 454 2050 L 632 1712 Z" unicode="Î" />
<glyph horiz-adv-x="532" d="M 481 0 L 53 0 L 53 1634 L 481 1634 L 481 0 Z M 608 1710 L 321 1710 L 321 2013 L 608 2013 L 608 1710 Z M 212 1710 L -74 1710 L -74 2013 L 212 2013 L 212 1710 Z" unicode="Ï" />
<glyph horiz-adv-x="1102" d="M 59 618 L 20 618 L 20 995 L 59 995 L 59 1634 L 586 1634 C 680 1634 758 1623 820 1603 C 882 1582 932 1549 969 1503 C 1005 1457 1032 1385 1048 1285 C 1064 1185 1073 1041 1073 852 C 1073 607 1066 441 1052 353 C 1038 265 1011 195 972 143 C 933 91 886 55 832 33 C 777 11 710 0 631 0 L 59 0 L 59 618 Z M 477 995 L 563 995 L 563 618 L 475 618 L 475 311 L 578 311 C 622 311 650 335 662 385 C 671 435 676 573 676 800 L 676 854 C 676 932 674 1008 671 1081 C 667 1153 663 1199 659 1219 C 651 1249 639 1269 625 1280 C 611 1290 592 1296 569 1296 L 477 1296 L 477 995 Z" unicode="Ð" />
<glyph horiz-adv-x="1073" d="M 1024 0 L 670 0 L 438 635 L 438 0 L 51 0 L 51 1634 L 401 1634 L 633 987 L 633 1634 L 1024 1634 L 1024 0 Z M 460 1804 C 446 1804 433 1797 421 1785 C 409 1772 402 1749 401 1716 L 159 1716 C 160 1828 181 1913 222 1972 C 263 2030 319 2060 389 2060 C 421 2060 451 2055 478 2047 C 504 2038 529 2021 553 1997 C 573 1976 587 1964 595 1960 C 602 1956 611 1954 622 1954 C 659 1954 679 1987 682 2054 L 913 2054 C 913 1944 893 1857 854 1794 C 814 1731 760 1700 692 1700 C 652 1700 622 1704 602 1713 C 581 1721 555 1740 525 1770 C 501 1792 479 1804 460 1804 Z" unicode="Ñ" />
<glyph horiz-adv-x="1116" d="M 557 1651 C 655 1651 741 1636 815 1606 C 888 1576 946 1533 989 1476 C 1031 1418 1059 1342 1072 1247 C 1085 1152 1092 1015 1092 836 C 1092 629 1083 477 1067 381 C 1050 284 1021 206 981 147 C 940 88 886 45 818 18 C 750 -9 663 -23 557 -23 C 476 -23 406 -15 348 1 C 289 17 239 41 198 75 C 157 108 124 151 99 204 C 73 256 55 320 44 394 C 32 468 27 611 27 821 C 27 1045 35 1196 51 1274 C 81 1407 137 1503 220 1562 C 302 1621 415 1651 557 1651 Z M 561 332 C 587 332 608 341 623 359 C 637 377 647 397 651 420 C 665 497 672 629 672 815 C 672 939 670 1037 666 1108 C 662 1179 653 1227 639 1253 C 624 1279 598 1292 561 1292 C 536 1292 517 1287 504 1277 C 490 1267 480 1250 472 1224 C 464 1198 458 1142 454 1055 C 450 968 449 888 449 815 C 449 635 455 502 469 418 C 479 360 509 332 561 332 Z M 831 1710 L 482 1710 L 284 2050 L 683 2050 L 831 1710 Z" unicode="Ò" />
<glyph horiz-adv-x="1116" d="M 557 1651 C 655 1651 741 1636 815 1606 C 888 1576 946 1533 989 1476 C 1031 1418 1059 1342 1072 1247 C 1085 1152 1092 1015 1092 836 C 1092 629 1083 477 1067 381 C 1050 284 1021 206 981 147 C 940 88 886 45 818 18 C 750 -9 663 -23 557 -23 C 476 -23 406 -15 348 1 C 289 17 239 41 198 75 C 157 108 124 151 99 204 C 73 256 55 320 44 394 C 32 468 27 611 27 821 C 27 1045 35 1196 51 1274 C 81 1407 137 1503 220 1562 C 302 1621 415 1651 557 1651 Z M 561 332 C 587 332 608 341 623 359 C 637 377 647 397 651 420 C 665 497 672 629 672 815 C 672 939 670 1037 666 1108 C 662 1179 653 1227 639 1253 C 624 1279 598 1292 561 1292 C 536 1292 517 1287 504 1277 C 490 1267 480 1250 472 1224 C 464 1198 458 1142 454 1055 C 450 968 449 888 449 815 C 449 635 455 502 469 418 C 479 360 509 332 561 332 Z M 284 1710 L 431 2050 L 831 2050 L 630 1710 L 284 1710 Z" unicode="Ó" />
<glyph horiz-adv-x="1116" d="M 557 1651 C 655 1651 741 1636 815 1606 C 888 1576 946 1533 989 1476 C 1031 1418 1059 1342 1072 1247 C 1085 1152 1092 1015 1092 836 C 1092 629 1083 477 1067 381 C 1050 284 1021 206 981 147 C 940 88 886 45 818 18 C 750 -9 663 -23 557 -23 C 476 -23 406 -15 348 1 C 289 17 239 41 198 75 C 157 108 124 151 99 204 C 73 256 55 320 44 394 C 32 468 27 611 27 821 C 27 1045 35 1196 51 1274 C 81 1407 137 1503 220 1562 C 302 1621 415 1651 557 1651 Z M 561 332 C 587 332 608 341 623 359 C 637 377 647 397 651 420 C 665 497 672 629 672 815 C 672 939 670 1037 666 1108 C 662 1179 653 1227 639 1253 C 624 1279 598 1292 561 1292 C 536 1292 517 1287 504 1277 C 490 1267 480 1250 472 1224 C 464 1198 458 1142 454 1055 C 450 968 449 888 449 815 C 449 635 455 502 469 418 C 479 360 509 332 561 332 Z M 922 1712 L 617 1712 L 554 1831 L 490 1712 L 193 1712 L 369 2050 L 744 2050 L 922 1712 Z" unicode="Ô" />
<glyph horiz-adv-x="1116" d="M 557 1651 C 655 1651 741 1636 815 1606 C 888 1576 946 1533 989 1476 C 1031 1418 1059 1342 1072 1247 C 1085 1152 1092 1015 1092 836 C 1092 629 1083 477 1067 381 C 1050 284 1021 206 981 147 C 940 88 886 45 818 18 C 750 -9 663 -23 557 -23 C 476 -23 406 -15 348 1 C 289 17 239 41 198 75 C 157 108 124 151 99 204 C 73 256 55 320 44 394 C 32 468 27 611 27 821 C 27 1045 35 1196 51 1274 C 81 1407 137 1503 220 1562 C 302 1621 415 1651 557 1651 Z M 561 332 C 587 332 608 341 623 359 C 637 377 647 397 651 420 C 665 497 672 629 672 815 C 672 939 670 1037 666 1108 C 662 1179 653 1227 639 1253 C 624 1279 598 1292 561 1292 C 536 1292 517 1287 504 1277 C 490 1267 480 1250 472 1224 C 464 1198 458 1142 454 1055 C 450 968 449 888 449 815 C 449 635 455 502 469 418 C 479 360 509 332 561 332 Z M 482 1804 C 468 1804 455 1797 443 1785 C 431 1772 424 1749 423 1716 L 181 1716 C 182 1828 203 1913 244 1972 C 285 2030 341 2060 411 2060 C 443 2060 473 2055 500 2047 C 526 2038 551 2021 575 1997 C 595 1976 609 1964 617 1960 C 624 1956 633 1954 644 1954 C 681 1954 701 1987 704 2054 L 935 2054 C 935 1944 915 1857 876 1794 C 836 1731 782 1700 714 1700 C 674 1700 644 1704 624 1713 C 603 1721 577 1740 547 1770 C 523 1792 501 1804 482 1804 Z" unicode="Õ" />
<glyph horiz-adv-x="1116" d="M 557 1651 C 655 1651 741 1636 815 1606 C 888 1576 946 1533 989 1476 C 1031 1418 1059 1342 1072 1247 C 1085 1152 1092 1015 1092 836 C 1092 629 1083 477 1067 381 C 1050 284 1021 206 981 147 C 940 88 886 45 818 18 C 750 -9 663 -23 557 -23 C 476 -23 406 -15 348 1 C 289 17 239 41 198 75 C 157 108 124 151 99 204 C 73 256 55 320 44 394 C 32 468 27 611 27 821 C 27 1045 35 1196 51 1274 C 81 1407 137 1503 220 1562 C 302 1621 415 1651 557 1651 Z M 561 332 C 587 332 608 341 623 359 C 637 377 647 397 651 420 C 665 497 672 629 672 815 C 672 939 670 1037 666 1108 C 662 1179 653 1227 639 1253 C 624 1279 598 1292 561 1292 C 536 1292 517 1287 504 1277 C 490 1267 480 1250 472 1224 C 464 1198 458 1142 454 1055 C 450 968 449 888 449 815 C 449 635 455 502 469 418 C 479 360 509 332 561 332 Z M 899 1710 L 612 1710 L 612 2013 L 899 2013 L 899 1710 Z M 503 1710 L 217 1710 L 217 2013 L 503 2013 L 503 1710 Z" unicode="Ö" />
<glyph horiz-adv-x="754" d="M 711 891 L 567 748 L 711 600 L 522 406 L 379 549 L 236 406 L 45 602 L 190 748 L 45 891 L 236 1087 L 379 942 L 522 1087 L 711 891 Z" unicode="×" />
<glyph horiz-adv-x="1116" d="M 211 63 C 127 121 73 209 51 328 C 35 414 27 579 27 821 C 27 1045 35 1196 51 1274 C 81 1407 137 1503 220 1562 C 302 1621 415 1651 557 1651 C 651 1651 737 1636 813 1608 L 834 1659 L 954 1659 L 913 1552 C 979 1500 1025 1432 1052 1348 C 1078 1264 1092 1093 1092 836 C 1092 566 1076 380 1044 278 C 1012 175 956 99 878 50 C 800 1 693 -23 557 -23 C 464 -23 383 -11 315 12 L 272 -96 L 150 -96 L 211 63 Z M 451 629 L 662 1176 L 659 1200 C 653 1232 643 1255 629 1270 C 615 1284 592 1292 561 1292 C 536 1292 517 1287 504 1277 C 490 1267 480 1250 472 1224 C 464 1198 458 1142 454 1055 C 450 968 449 888 449 815 L 449 715 L 451 629 Z M 670 965 L 465 434 L 469 406 C 475 356 506 332 563 332 C 614 332 643 357 651 408 C 665 508 672 644 672 815 L 672 884 L 670 965 Z" unicode="Ø" />
<glyph horiz-adv-x="1104" d="M 1059 434 C 1059 290 1015 179 927 100 C 839 21 715 -18 557 -18 C 393 -18 267 21 177 101 C 87 181 43 294 43 440 L 43 1634 L 457 1634 L 457 436 C 457 366 488 332 551 332 C 612 332 643 366 643 434 L 643 1634 L 1059 1634 L 1059 434 Z M 825 1710 L 476 1710 L 278 2050 L 677 2050 L 825 1710 Z" unicode="Ù" />
<glyph horiz-adv-x="1104" d="M 1059 434 C 1059 290 1015 179 927 100 C 839 21 715 -18 557 -18 C 393 -18 267 21 177 101 C 87 181 43 294 43 440 L 43 1634 L 457 1634 L 457 436 C 457 366 488 332 551 332 C 612 332 643 366 643 434 L 643 1634 L 1059 1634 L 1059 434 Z M 278 1710 L 425 2050 L 825 2050 L 624 1710 L 278 1710 Z" unicode="Ú" />
<glyph horiz-adv-x="1104" d="M 1059 434 C 1059 290 1015 179 927 100 C 839 21 715 -18 557 -18 C 393 -18 267 21 177 101 C 87 181 43 294 43 440 L 43 1634 L 457 1634 L 457 436 C 457 366 488 332 551 332 C 612 332 643 366 643 434 L 643 1634 L 1059 1634 L 1059 434 Z M 916 1712 L 611 1712 L 548 1831 L 484 1712 L 187 1712 L 363 2050 L 738 2050 L 916 1712 Z" unicode="Û" />
<glyph horiz-adv-x="1104" d="M 1059 434 C 1059 290 1015 179 927 100 C 839 21 715 -18 557 -18 C 393 -18 267 21 177 101 C 87 181 43 294 43 440 L 43 1634 L 457 1634 L 457 436 C 457 366 488 332 551 332 C 612 332 643 366 643 434 L 643 1634 L 1059 1634 L 1059 434 Z M 893 1710 L 606 1710 L 606 2013 L 893 2013 L 893 1710 Z M 497 1710 L 211 1710 L 211 2013 L 497 2013 L 497 1710 Z" unicode="Ü" />
<glyph horiz-adv-x="1153" d="M 1153 1634 L 778 625 L 778 0 L 356 0 L 356 614 L 0 1634 L 426 1634 C 517 1300 564 1113 567 1073 C 569 1109 588 1187 624 1309 C 660 1431 695 1539 727 1634 L 1153 1634 Z M 303 1710 L 450 2050 L 850 2050 L 649 1710 L 303 1710 Z" unicode="Ý" />
<glyph horiz-adv-x="1110" d="M 487 1634 L 487 1358 L 664 1358 C 824 1358 935 1307 995 1206 C 1061 1124 1094 1000 1094 834 C 1094 660 1059 535 991 457 C 957 405 910 367 851 343 C 792 318 715 306 619 306 L 557 306 L 479 307 L 479 0 L 49 0 L 49 1634 L 487 1634 Z M 664 811 C 664 833 662 850 659 864 C 656 910 649 942 638 960 C 626 978 608 987 582 987 L 477 987 L 477 641 L 575 641 C 605 641 626 649 638 666 C 649 682 656 712 659 754 C 662 769 664 788 664 811 Z" unicode="Þ" />
<glyph horiz-adv-x="1481" d="M 578 1346 C 546 1346 524 1337 514 1320 C 503 1302 498 1278 498 1247 L 498 0 L 111 0 L 111 803 L 8 803 L 8 1126 L 111 1126 L 111 1303 C 111 1407 156 1490 247 1552 C 337 1614 456 1645 602 1645 C 726 1645 829 1614 911 1553 C 993 1492 1034 1412 1034 1313 C 1034 1241 1012 1170 968 1101 C 944 1063 926 1032 916 1006 C 906 980 901 956 901 934 C 901 891 914 856 942 828 C 969 800 1021 771 1097 743 L 1202 700 C 1291 664 1357 617 1400 559 C 1442 501 1464 425 1464 332 C 1464 216 1425 129 1349 69 C 1273 9 1162 -20 1018 -20 C 868 -20 757 1 684 44 C 610 86 568 152 557 242 L 552 318 L 549 391 L 938 391 L 938 371 C 938 324 939 290 942 269 C 944 247 951 233 963 226 C 975 218 991 215 1012 215 C 1034 215 1050 220 1060 230 C 1070 240 1075 259 1075 289 C 1075 327 1072 356 1066 374 C 1060 392 1050 407 1036 421 C 1022 435 1003 447 979 457 C 917 479 866 501 825 522 C 741 554 681 585 645 616 C 609 647 582 685 565 729 C 547 773 539 829 539 895 C 539 940 544 978 555 1010 C 566 1042 578 1071 592 1097 C 605 1123 617 1147 628 1171 C 639 1195 645 1221 645 1251 C 645 1282 640 1306 630 1322 C 620 1338 603 1346 578 1346 Z" unicode="ß" />
<glyph horiz-adv-x="961" d="M 934 0 L 561 0 L 555 80 C 503 20 418 -10 299 -10 C 206 -10 136 12 89 58 C 42 103 19 168 19 252 L 19 297 C 19 387 29 455 51 502 C 73 548 107 587 155 619 C 202 650 261 673 331 688 C 401 703 474 711 551 711 C 551 775 546 814 536 828 C 526 842 509 850 487 850 C 469 850 454 846 444 839 C 434 831 427 818 423 800 C 419 782 417 760 416 735 L 61 735 L 60 760 C 60 850 76 923 110 978 C 144 1032 195 1074 263 1104 C 331 1134 410 1149 500 1149 C 630 1149 731 1122 803 1070 C 875 1018 914 943 918 846 L 920 691 L 915 240 C 915 86 921 6 934 0 Z M 553 487 L 532 487 L 512 485 C 474 479 446 467 428 447 C 410 427 401 394 401 350 C 401 324 407 305 420 292 C 432 278 450 272 473 272 C 503 272 523 281 535 301 C 547 320 553 362 553 426 L 553 487 Z M 754 1202 L 405 1202 L 207 1542 L 606 1542 L 754 1202 Z" unicode="à" />
<glyph horiz-adv-x="961" d="M 934 0 L 561 0 L 555 80 C 503 20 418 -10 299 -10 C 206 -10 136 12 89 58 C 42 103 19 168 19 252 L 19 297 C 19 387 29 455 51 502 C 73 548 107 587 155 619 C 202 650 261 673 331 688 C 401 703 474 711 551 711 C 551 775 546 814 536 828 C 526 842 509 850 487 850 C 469 850 454 846 444 839 C 434 831 427 818 423 800 C 419 782 417 760 416 735 L 61 735 L 60 760 C 60 850 76 923 110 978 C 144 1032 195 1074 263 1104 C 331 1134 410 1149 500 1149 C 630 1149 731 1122 803 1070 C 875 1018 914 943 918 846 L 920 691 L 915 240 C 915 86 921 6 934 0 Z M 553 487 L 532 487 L 512 485 C 474 479 446 467 428 447 C 410 427 401 394 401 350 C 401 324 407 305 420 292 C 432 278 450 272 473 272 C 503 272 523 281 535 301 C 547 320 553 362 553 426 L 553 487 Z M 208 1202 L 355 1542 L 755 1542 L 554 1202 L 208 1202 Z" unicode="á" />
<glyph horiz-adv-x="961" d="M 934 0 L 561 0 L 555 80 C 503 20 418 -10 299 -10 C 206 -10 136 12 89 58 C 42 103 19 168 19 252 L 19 297 C 19 387 29 455 51 502 C 73 548 107 587 155 619 C 202 650 261 673 331 688 C 401 703 474 711 551 711 C 551 775 546 814 536 828 C 526 842 509 850 487 850 C 469 850 454 846 444 839 C 434 831 427 818 423 800 C 419 782 417 760 416 735 L 61 735 L 60 760 C 60 850 76 923 110 978 C 144 1032 195 1074 263 1104 C 331 1134 410 1149 500 1149 C 630 1149 731 1122 803 1070 C 875 1018 914 943 918 846 L 920 691 L 915 240 C 915 86 921 6 934 0 Z M 553 487 L 532 487 L 512 485 C 474 479 446 467 428 447 C 410 427 401 394 401 350 C 401 324 407 305 420 292 C 432 278 450 272 473 272 C 503 272 523 281 535 301 C 547 320 553 362 553 426 L 553 487 Z M 845 1204 L 540 1204 L 477 1323 L 413 1204 L 116 1204 L 292 1542 L 667 1542 L 845 1204 Z" unicode="â" />
<glyph horiz-adv-x="961" d="M 934 0 L 561 0 L 555 80 C 503 20 418 -10 299 -10 C 206 -10 136 12 89 58 C 42 103 19 168 19 252 L 19 297 C 19 387 29 455 51 502 C 73 548 107 587 155 619 C 202 650 261 673 331 688 C 401 703 474 711 551 711 C 551 775 546 814 536 828 C 526 842 509 850 487 850 C 469 850 454 846 444 839 C 434 831 427 818 423 800 C 419 782 417 760 416 735 L 61 735 L 60 760 C 60 850 76 923 110 978 C 144 1032 195 1074 263 1104 C 331 1134 410 1149 500 1149 C 630 1149 731 1122 803 1070 C 875 1018 914 943 918 846 L 920 691 L 915 240 C 915 86 921 6 934 0 Z M 553 487 L 532 487 L 512 485 C 474 479 446 467 428 447 C 410 427 401 394 401 350 C 401 324 407 305 420 292 C 432 278 450 272 473 272 C 503 272 523 281 535 301 C 547 320 553 362 553 426 L 553 487 Z M 404 1296 C 390 1296 377 1289 365 1277 C 353 1264 346 1241 345 1208 L 103 1208 C 104 1320 125 1405 166 1464 C 207 1522 263 1552 333 1552 C 365 1552 395 1547 422 1539 C 448 1530 473 1513 497 1489 C 517 1468 531 1456 539 1452 C 546 1448 555 1446 566 1446 C 603 1446 623 1479 626 1546 L 857 1546 C 857 1436 837 1349 798 1286 C 758 1223 704 1192 636 1192 C 596 1192 566 1196 546 1205 C 525 1213 499 1232 469 1262 C 445 1284 423 1296 404 1296 Z" unicode="ã" />
<glyph horiz-adv-x="961" d="M 934 0 L 561 0 L 555 80 C 503 20 418 -10 299 -10 C 206 -10 136 12 89 58 C 42 103 19 168 19 252 L 19 297 C 19 387 29 455 51 502 C 73 548 107 587 155 619 C 202 650 261 673 331 688 C 401 703 474 711 551 711 C 551 775 546 814 536 828 C 526 842 509 850 487 850 C 469 850 454 846 444 839 C 434 831 427 818 423 800 C 419 782 417 760 416 735 L 61 735 L 60 760 C 60 850 76 923 110 978 C 144 1032 195 1074 263 1104 C 331 1134 410 1149 500 1149 C 630 1149 731 1122 803 1070 C 875 1018 914 943 918 846 L 920 691 L 915 240 C 915 86 921 6 934 0 Z M 553 487 L 532 487 L 512 485 C 474 479 446 467 428 447 C 410 427 401 394 401 350 C 401 324 407 305 420 292 C 432 278 450 272 473 272 C 503 272 523 281 535 301 C 547 320 553 362 553 426 L 553 487 Z M 821 1202 L 534 1202 L 534 1505 L 821 1505 L 821 1202 Z M 425 1202 L 139 1202 L 139 1505 L 425 1505 L 425 1202 Z" unicode="ä" />
<glyph horiz-adv-x="961" d="M 934 0 L 561 0 L 555 80 C 503 20 418 -10 299 -10 C 206 -10 136 12 89 58 C 42 103 19 168 19 252 L 19 297 C 19 387 29 455 51 502 C 73 548 107 587 155 619 C 202 650 261 673 331 688 C 401 703 474 711 551 711 C 551 775 546 814 536 828 C 526 842 509 850 487 850 C 469 850 454 846 444 839 C 434 831 427 818 423 800 C 419 782 417 760 416 735 L 61 735 L 60 760 C 60 850 76 923 110 978 C 144 1032 195 1074 263 1104 C 331 1134 410 1149 500 1149 C 630 1149 731 1122 803 1070 C 875 1018 914 943 918 846 L 920 691 L 915 240 C 915 86 921 6 934 0 Z M 553 487 L 532 487 L 512 485 C 474 479 446 467 428 447 C 410 427 401 394 401 350 C 401 324 407 305 420 292 C 432 278 450 272 473 272 C 503 272 523 281 535 301 C 547 320 553 362 553 426 L 553 487 Z M 482 1667 C 549 1667 606 1643 652 1596 C 698 1548 721 1490 721 1421 C 721 1352 698 1294 652 1246 C 606 1198 550 1174 482 1174 C 413 1174 355 1197 309 1245 C 263 1293 240 1351 240 1421 C 240 1491 263 1549 310 1596 C 356 1643 414 1667 482 1667 Z M 482 1493 C 463 1493 447 1485 434 1471 C 420 1457 414 1440 414 1421 C 414 1400 420 1383 434 1369 C 447 1355 463 1348 482 1348 C 499 1348 514 1355 528 1369 C 542 1383 549 1400 549 1421 C 549 1441 542 1458 528 1472 C 514 1486 498 1493 482 1493 Z" unicode="å" />
<glyph horiz-adv-x="1464" d="M 299 -10 C 206 -10 136 12 89 58 C 42 103 19 168 19 252 L 19 297 C 19 387 29 455 51 502 C 73 548 107 587 155 619 C 202 650 261 673 331 688 C 401 703 474 711 551 711 C 551 775 546 814 536 828 C 526 842 509 850 487 850 C 469 850 454 846 444 839 C 434 831 427 818 423 800 C 419 782 417 760 416 735 L 61 735 L 60 760 C 60 848 75 919 107 973 C 139 1027 186 1070 248 1102 C 310 1133 380 1149 457 1149 C 530 1149 592 1137 642 1114 C 692 1091 725 1060 741 1022 C 758 1057 789 1086 835 1109 C 881 1131 935 1143 997 1143 C 1089 1143 1169 1123 1237 1083 C 1305 1043 1355 984 1387 908 C 1419 831 1435 697 1435 507 L 1434 444 L 909 444 L 909 398 C 909 346 915 311 929 294 C 943 276 965 268 995 268 C 1021 268 1042 276 1056 293 C 1070 310 1077 342 1077 389 L 1430 389 C 1417 249 1376 147 1306 82 C 1236 16 1132 -16 995 -16 C 900 -16 820 -2 756 24 C 691 51 647 91 625 145 C 596 95 552 57 493 30 C 434 3 369 -10 299 -10 Z M 1075 682 C 1075 752 1068 798 1055 819 C 1041 839 1020 850 991 850 C 959 850 937 838 923 816 C 909 793 903 748 903 682 L 1075 682 Z M 553 487 L 532 487 L 512 485 C 474 479 446 467 428 447 C 410 427 401 394 401 350 C 401 324 407 305 420 292 C 432 278 450 272 473 272 C 503 272 523 281 535 301 C 547 320 553 362 553 426 L 553 487 Z" unicode="æ" />
<glyph horiz-adv-x="930" d="M 358 -6 C 246 12 162 60 107 140 C 52 219 25 361 25 565 C 25 680 34 775 54 849 C 73 923 101 979 138 1019 C 175 1059 223 1089 282 1111 C 341 1132 406 1143 477 1143 C 579 1143 662 1126 727 1093 C 791 1059 840 1003 874 924 C 884 899 893 858 899 800 C 905 742 909 683 909 621 L 557 621 C 557 701 555 751 551 769 C 547 787 540 803 530 816 C 520 829 503 836 481 836 C 440 836 416 814 408 770 C 399 718 395 649 395 563 C 395 473 397 405 403 360 C 409 312 434 289 477 289 C 510 289 532 302 544 328 C 555 354 561 412 561 500 L 905 500 C 905 386 900 306 890 259 C 880 211 861 169 834 131 C 806 93 774 63 736 41 C 698 19 651 3 596 -6 L 596 -39 C 650 -39 694 -54 726 -85 C 758 -116 774 -161 774 -219 C 774 -276 749 -322 701 -356 C 652 -390 583 -407 494 -407 C 434 -407 367 -397 293 -379 L 293 -203 C 315 -208 336 -211 357 -211 C 389 -211 414 -205 433 -195 C 451 -185 461 -170 461 -152 C 461 -98 426 -72 358 -72 L 358 -6 Z" unicode="ç" />
<glyph horiz-adv-x="940" d="M 915 389 C 906 291 884 212 849 154 C 814 95 765 52 703 25 C 640 -2 566 -16 481 -16 C 316 -16 198 29 128 119 C 58 209 23 357 23 563 C 23 708 39 821 73 903 C 107 984 158 1044 226 1084 C 294 1123 379 1143 483 1143 C 577 1143 659 1122 728 1080 C 796 1038 846 977 876 897 C 906 817 921 687 921 507 L 920 444 L 395 444 L 395 398 C 395 346 401 311 415 294 C 429 276 451 268 481 268 C 507 268 528 276 542 293 C 556 310 563 342 563 389 L 915 389 Z M 561 682 C 561 752 554 798 541 819 C 527 839 506 850 477 850 C 445 850 423 838 409 816 C 395 793 389 748 389 682 L 561 682 Z M 743 1202 L 394 1202 L 196 1542 L 595 1542 L 743 1202 Z" unicode="è" />
<glyph horiz-adv-x="940" d="M 915 389 C 906 291 884 212 849 154 C 814 95 765 52 703 25 C 640 -2 566 -16 481 -16 C 316 -16 198 29 128 119 C 58 209 23 357 23 563 C 23 708 39 821 73 903 C 107 984 158 1044 226 1084 C 294 1123 379 1143 483 1143 C 577 1143 659 1122 728 1080 C 796 1038 846 977 876 897 C 906 817 921 687 921 507 L 920 444 L 395 444 L 395 398 C 395 346 401 311 415 294 C 429 276 451 268 481 268 C 507 268 528 276 542 293 C 556 310 563 342 563 389 L 915 389 Z M 561 682 C 561 752 554 798 541 819 C 527 839 506 850 477 850 C 445 850 423 838 409 816 C 395 793 389 748 389 682 L 561 682 Z M 198 1202 L 345 1542 L 745 1542 L 544 1202 L 198 1202 Z" unicode="é" />
<glyph horiz-adv-x="940" d="M 915 389 C 906 291 884 212 849 154 C 814 95 765 52 703 25 C 640 -2 566 -16 481 -16 C 316 -16 198 29 128 119 C 58 209 23 357 23 563 C 23 708 39 821 73 903 C 107 984 158 1044 226 1084 C 294 1123 379 1143 483 1143 C 577 1143 659 1122 728 1080 C 796 1038 846 977 876 897 C 906 817 921 687 921 507 L 920 444 L 395 444 L 395 398 C 395 346 401 311 415 294 C 429 276 451 268 481 268 C 507 268 528 276 542 293 C 556 310 563 342 563 389 L 915 389 Z M 561 682 C 561 752 554 798 541 819 C 527 839 506 850 477 850 C 445 850 423 838 409 816 C 395 793 389 748 389 682 L 561 682 Z M 834 1204 L 529 1204 L 466 1323 L 402 1204 L 105 1204 L 281 1542 L 656 1542 L 834 1204 Z" unicode="ê" />
<glyph horiz-adv-x="940" d="M 915 389 C 906 291 884 212 849 154 C 814 95 765 52 703 25 C 640 -2 566 -16 481 -16 C 316 -16 198 29 128 119 C 58 209 23 357 23 563 C 23 708 39 821 73 903 C 107 984 158 1044 226 1084 C 294 1123 379 1143 483 1143 C 577 1143 659 1122 728 1080 C 796 1038 846 977 876 897 C 906 817 921 687 921 507 L 920 444 L 395 444 L 395 398 C 395 346 401 311 415 294 C 429 276 451 268 481 268 C 507 268 528 276 542 293 C 556 310 563 342 563 389 L 915 389 Z M 561 682 C 561 752 554 798 541 819 C 527 839 506 850 477 850 C 445 850 423 838 409 816 C 395 793 389 748 389 682 L 561 682 Z M 811 1202 L 524 1202 L 524 1505 L 811 1505 L 811 1202 Z M 415 1202 L 129 1202 L 129 1505 L 415 1505 L 415 1202 Z" unicode="ë" />
<glyph horiz-adv-x="477" d="M 442 0 L 59 0 C 53 0 49 5 47 15 C 45 25 45 46 45 78 L 45 1126 L 434 1126 L 434 76 C 434 46 434 26 435 17 C 435 7 438 2 442 0 Z M 513 1202 L 164 1202 L -34 1542 L 365 1542 L 513 1202 Z" unicode="ì" />
<glyph horiz-adv-x="477" d="M 442 0 L 59 0 C 53 0 49 5 47 15 C 45 25 45 46 45 78 L 45 1126 L 434 1126 L 434 76 C 434 46 434 26 435 17 C 435 7 438 2 442 0 Z M -34 1202 L 113 1542 L 513 1542 L 312 1202 L -34 1202 Z" unicode="í" />
<glyph horiz-adv-x="477" d="M 442 0 L 59 0 C 53 0 49 5 47 15 C 45 25 45 46 45 78 L 45 1126 L 434 1126 L 434 76 C 434 46 434 26 435 17 C 435 7 438 2 442 0 Z M 604 1204 L 299 1204 L 236 1323 L 172 1204 L -125 1204 L 51 1542 L 426 1542 L 604 1204 Z" unicode="î" />
<glyph horiz-adv-x="477" d="M 442 0 L 59 0 C 53 0 49 5 47 15 C 45 25 45 46 45 78 L 45 1126 L 434 1126 L 434 76 C 434 46 434 26 435 17 C 435 7 438 2 442 0 Z M 581 1202 L 294 1202 L 294 1505 L 581 1505 L 581 1202 Z M 185 1202 L -101 1202 L -101 1505 L 185 1505 L 185 1202 Z" unicode="ï" />
<glyph horiz-adv-x="999" d="M 582 1014 C 568 1010 551 1008 530 1008 C 443 1008 382 1056 348 1153 L 461 1210 C 466 1192 475 1177 487 1166 C 499 1154 512 1149 526 1149 C 545 1149 563 1151 580 1157 L 578 1225 L 578 1268 C 575 1304 567 1330 554 1345 C 540 1360 521 1368 496 1368 C 470 1368 452 1364 443 1358 C 433 1352 427 1342 423 1330 C 419 1317 418 1300 418 1278 L 418 1247 L 53 1247 C 53 1315 57 1366 65 1401 C 73 1436 87 1469 109 1500 C 131 1531 159 1558 193 1581 C 227 1603 268 1621 316 1635 C 364 1648 421 1655 487 1655 C 603 1655 699 1628 775 1574 C 851 1520 900 1441 924 1339 L 940 1255 C 954 1262 971 1266 989 1266 C 1028 1266 1062 1254 1092 1231 C 1122 1208 1145 1177 1163 1137 L 1063 1061 C 1046 1103 1023 1124 993 1124 C 987 1124 976 1121 958 1116 C 970 1013 977 922 977 842 C 977 702 971 575 959 460 C 947 344 931 264 911 219 C 839 61 698 -18 487 -18 C 396 -18 319 -5 257 18 C 195 42 146 79 112 127 C 77 175 54 230 43 290 C 32 350 27 419 27 499 C 27 637 38 734 60 788 C 82 842 120 884 174 915 C 227 945 293 961 373 961 C 409 961 441 957 469 950 C 497 943 535 926 584 899 L 584 943 L 582 1014 Z M 496 283 C 515 283 531 286 544 292 C 556 298 565 308 571 322 C 577 336 581 379 585 451 C 588 523 590 578 590 614 C 578 638 565 654 552 662 C 539 670 524 674 508 674 C 457 674 430 654 426 616 C 423 589 422 545 422 484 L 422 429 C 422 375 424 340 429 325 C 434 309 442 298 452 292 C 462 286 477 283 496 283 Z" unicode="ð" />
<glyph horiz-adv-x="967" d="M 934 0 L 557 0 C 553 2 551 17 550 45 C 549 73 548 106 548 145 C 547 183 547 280 547 435 L 547 743 C 547 771 542 791 533 804 C 524 816 509 823 489 823 C 444 823 422 790 422 725 L 422 0 L 43 0 L 43 1126 L 410 1126 L 410 1016 C 426 1054 455 1084 498 1108 C 540 1131 592 1143 653 1143 C 741 1143 808 1117 854 1066 C 900 1015 924 940 924 840 L 924 489 C 924 381 924 293 924 227 C 924 161 925 106 927 64 C 928 21 930 0 934 0 Z M 407 1296 C 393 1296 380 1289 368 1277 C 356 1264 349 1241 348 1208 L 106 1208 C 107 1320 128 1405 169 1464 C 210 1522 266 1552 336 1552 C 368 1552 398 1547 425 1539 C 451 1530 476 1513 500 1489 C 520 1468 534 1456 542 1452 C 549 1448 558 1446 569 1446 C 606 1446 626 1479 629 1546 L 860 1546 C 860 1436 840 1349 801 1286 C 761 1223 707 1192 639 1192 C 599 1192 569 1196 549 1205 C 528 1213 502 1232 472 1262 C 448 1284 426 1296 407 1296 Z" unicode="ñ" />
<glyph horiz-adv-x="963" d="M 938 567 C 938 415 921 301 887 225 C 853 148 802 89 735 48 C 667 6 581 -14 477 -14 C 369 -14 280 8 210 52 C 139 96 90 160 63 242 C 36 324 23 432 23 567 C 23 702 37 809 65 889 C 93 968 143 1030 217 1075 C 291 1120 379 1143 483 1143 C 589 1143 677 1122 745 1082 C 813 1041 863 980 893 899 C 923 818 938 707 938 567 Z M 569 561 C 569 653 566 723 560 769 C 554 815 529 838 483 838 C 450 838 427 824 414 796 C 401 768 395 708 395 616 L 395 561 C 395 427 401 347 415 323 C 428 299 450 287 481 287 C 505 287 524 294 538 308 C 552 322 560 350 564 392 C 567 434 569 490 569 561 Z M 755 1202 L 406 1202 L 208 1542 L 607 1542 L 755 1202 Z" unicode="ò" />
<glyph horiz-adv-x="963" d="M 938 567 C 938 415 921 301 887 225 C 853 148 802 89 735 48 C 667 6 581 -14 477 -14 C 369 -14 280 8 210 52 C 139 96 90 160 63 242 C 36 324 23 432 23 567 C 23 702 37 809 65 889 C 93 968 143 1030 217 1075 C 291 1120 379 1143 483 1143 C 589 1143 677 1122 745 1082 C 813 1041 863 980 893 899 C 923 818 938 707 938 567 Z M 569 561 C 569 653 566 723 560 769 C 554 815 529 838 483 838 C 450 838 427 824 414 796 C 401 768 395 708 395 616 L 395 561 C 395 427 401 347 415 323 C 428 299 450 287 481 287 C 505 287 524 294 538 308 C 552 322 560 350 564 392 C 567 434 569 490 569 561 Z M 209 1202 L 356 1542 L 756 1542 L 555 1202 L 209 1202 Z" unicode="ó" />
<glyph horiz-adv-x="963" d="M 938 567 C 938 415 921 301 887 225 C 853 148 802 89 735 48 C 667 6 581 -14 477 -14 C 369 -14 280 8 210 52 C 139 96 90 160 63 242 C 36 324 23 432 23 567 C 23 702 37 809 65 889 C 93 968 143 1030 217 1075 C 291 1120 379 1143 483 1143 C 589 1143 677 1122 745 1082 C 813 1041 863 980 893 899 C 923 818 938 707 938 567 Z M 569 561 C 569 653 566 723 560 769 C 554 815 529 838 483 838 C 450 838 427 824 414 796 C 401 768 395 708 395 616 L 395 561 C 395 427 401 347 415 323 C 428 299 450 287 481 287 C 505 287 524 294 538 308 C 552 322 560 350 564 392 C 567 434 569 490 569 561 Z M 846 1204 L 541 1204 L 478 1323 L 414 1204 L 117 1204 L 293 1542 L 668 1542 L 846 1204 Z" unicode="ô" />
<glyph horiz-adv-x="963" d="M 938 567 C 938 415 921 301 887 225 C 853 148 802 89 735 48 C 667 6 581 -14 477 -14 C 369 -14 280 8 210 52 C 139 96 90 160 63 242 C 36 324 23 432 23 567 C 23 702 37 809 65 889 C 93 968 143 1030 217 1075 C 291 1120 379 1143 483 1143 C 589 1143 677 1122 745 1082 C 813 1041 863 980 893 899 C 923 818 938 707 938 567 Z M 569 561 C 569 653 566 723 560 769 C 554 815 529 838 483 838 C 450 838 427 824 414 796 C 401 768 395 708 395 616 L 395 561 C 395 427 401 347 415 323 C 428 299 450 287 481 287 C 505 287 524 294 538 308 C 552 322 560 350 564 392 C 567 434 569 490 569 561 Z M 405 1296 C 391 1296 378 1289 366 1277 C 354 1264 347 1241 346 1208 L 104 1208 C 105 1320 126 1405 167 1464 C 208 1522 264 1552 334 1552 C 366 1552 396 1547 423 1539 C 449 1530 474 1513 498 1489 C 518 1468 532 1456 540 1452 C 547 1448 556 1446 567 1446 C 604 1446 624 1479 627 1546 L 858 1546 C 858 1436 838 1349 799 1286 C 759 1223 705 1192 637 1192 C 597 1192 567 1196 547 1205 C 526 1213 500 1232 470 1262 C 446 1284 424 1296 405 1296 Z" unicode="õ" />
<glyph horiz-adv-x="963" d="M 938 567 C 938 415 921 301 887 225 C 853 148 802 89 735 48 C 667 6 581 -14 477 -14 C 369 -14 280 8 210 52 C 139 96 90 160 63 242 C 36 324 23 432 23 567 C 23 702 37 809 65 889 C 93 968 143 1030 217 1075 C 291 1120 379 1143 483 1143 C 589 1143 677 1122 745 1082 C 813 1041 863 980 893 899 C 923 818 938 707 938 567 Z M 569 561 C 569 653 566 723 560 769 C 554 815 529 838 483 838 C 450 838 427 824 414 796 C 401 768 395 708 395 616 L 395 561 C 395 427 401 347 415 323 C 428 299 450 287 481 287 C 505 287 524 294 538 308 C 552 322 560 350 564 392 C 567 434 569 490 569 561 Z M 822 1202 L 535 1202 L 535 1505 L 822 1505 L 822 1202 Z M 426 1202 L 140 1202 L 140 1505 L 426 1505 L 426 1202 Z" unicode="ö" />
<glyph horiz-adv-x="1536" d="M 208 684 L 208 896 L 1328 896 L 1328 684 L 208 684 Z M 768 228 C 725 228 688 244 656 276 C 624 308 608 345 608 388 C 608 430 622 468 650 500 C 678 532 717 548 768 548 C 816 548 854 532 884 500 C 913 468 928 430 928 388 C 928 345 912 308 880 276 C 848 244 810 228 768 228 Z M 768 1028 C 725 1028 688 1044 656 1076 C 624 1108 608 1145 608 1188 C 608 1230 622 1268 650 1300 C 678 1332 717 1348 768 1348 C 816 1348 854 1332 884 1300 C 913 1268 928 1230 928 1188 C 928 1145 912 1108 880 1076 C 848 1044 810 1028 768 1028 Z" unicode="÷" />
<glyph horiz-adv-x="963" d="M 207 53 C 137 99 88 163 62 245 C 36 327 23 435 23 567 C 23 702 37 809 65 889 C 93 968 143 1030 217 1075 C 291 1120 379 1143 483 1143 C 563 1143 630 1132 686 1110 L 717 1180 L 801 1180 L 754 1077 C 822 1033 869 969 897 887 C 924 805 938 698 938 567 C 938 415 921 301 887 225 C 853 148 802 89 735 48 C 667 6 581 -14 477 -14 C 401 -14 334 -2 274 20 L 238 -59 L 156 -59 L 207 53 Z M 397 444 L 553 795 C 542 823 519 838 483 838 C 450 838 427 824 414 796 C 401 768 395 708 395 616 L 395 561 L 397 444 Z M 565 690 L 408 340 C 419 304 443 287 481 287 C 505 287 524 294 538 308 C 552 322 560 350 564 392 C 567 434 569 490 569 561 L 565 690 Z" unicode="ø" />
<glyph horiz-adv-x="961" d="M 926 0 L 559 0 L 553 68 C 525 40 494 21 460 9 C 426 -2 385 -8 338 -8 C 236 -8 161 21 112 80 C 63 139 39 228 39 346 L 39 527 L 35 1126 L 416 1126 L 416 371 C 416 339 420 317 430 306 C 440 294 455 289 477 289 C 498 289 514 295 526 309 C 537 323 543 347 543 381 L 543 1126 L 920 1126 L 920 133 C 920 68 922 24 926 0 Z M 754 1202 L 405 1202 L 207 1542 L 606 1542 L 754 1202 Z" unicode="ù" />
<glyph horiz-adv-x="961" d="M 926 0 L 559 0 L 553 68 C 525 40 494 21 460 9 C 426 -2 385 -8 338 -8 C 236 -8 161 21 112 80 C 63 139 39 228 39 346 L 39 527 L 35 1126 L 416 1126 L 416 371 C 416 339 420 317 430 306 C 440 294 455 289 477 289 C 498 289 514 295 526 309 C 537 323 543 347 543 381 L 543 1126 L 920 1126 L 920 133 C 920 68 922 24 926 0 Z M 208 1202 L 355 1542 L 755 1542 L 554 1202 L 208 1202 Z" unicode="ú" />
<glyph horiz-adv-x="961" d="M 926 0 L 559 0 L 553 68 C 525 40 494 21 460 9 C 426 -2 385 -8 338 -8 C 236 -8 161 21 112 80 C 63 139 39 228 39 346 L 39 527 L 35 1126 L 416 1126 L 416 371 C 416 339 420 317 430 306 C 440 294 455 289 477 289 C 498 289 514 295 526 309 C 537 323 543 347 543 381 L 543 1126 L 920 1126 L 920 133 C 920 68 922 24 926 0 Z M 845 1204 L 540 1204 L 477 1323 L 413 1204 L 116 1204 L 292 1542 L 667 1542 L 845 1204 Z" unicode="û" />
<glyph horiz-adv-x="961" d="M 926 0 L 559 0 L 553 68 C 525 40 494 21 460 9 C 426 -2 385 -8 338 -8 C 236 -8 161 21 112 80 C 63 139 39 228 39 346 L 39 527 L 35 1126 L 416 1126 L 416 371 C 416 339 420 317 430 306 C 440 294 455 289 477 289 C 498 289 514 295 526 309 C 537 323 543 347 543 381 L 543 1126 L 920 1126 L 920 133 C 920 68 922 24 926 0 Z M 821 1202 L 534 1202 L 534 1505 L 821 1505 L 821 1202 Z M 425 1202 L 139 1202 L 139 1505 L 425 1505 L 425 1202 Z" unicode="ü" />
<glyph horiz-adv-x="1001" d="M 999 1126 L 598 -334 L 219 -334 L 319 6 L 2 1126 L 387 1126 L 393 1085 L 504 461 L 595 1004 L 614 1126 L 999 1126 Z M 228 1202 L 375 1542 L 775 1542 L 574 1202 L 228 1202 Z" unicode="ý" />
<glyph horiz-adv-x="985" d="M 965 578 C 965 364 936 213 880 127 C 824 41 739 -2 625 -2 C 534 -2 464 17 416 57 L 416 -334 L 43 -334 L 43 1636 L 412 1636 L 412 1042 C 448 1109 525 1143 641 1143 C 720 1143 783 1124 829 1088 C 875 1052 909 991 931 905 C 953 819 965 710 965 578 Z M 582 571 C 582 601 580 633 578 669 C 576 704 573 734 569 760 C 565 786 558 805 548 817 C 537 829 520 836 498 836 C 460 836 436 817 426 780 C 416 705 412 635 412 571 C 412 426 418 342 431 320 C 443 298 465 287 496 287 C 536 287 561 306 569 344 C 577 404 582 480 582 571 Z" unicode="þ" />
<glyph horiz-adv-x="1001" d="M 999 1126 L 598 -334 L 219 -334 L 319 6 L 2 1126 L 387 1126 L 393 1085 L 504 461 L 595 1004 L 614 1126 L 999 1126 Z M 841 1202 L 554 1202 L 554 1505 L 841 1505 L 841 1202 Z M 445 1202 L 159 1202 L 159 1505 L 445 1505 L 445 1202 Z" unicode="ÿ" />
<glyph horiz-adv-x="1135" d="M 479 801 L 479 0 L 100 0 L 100 801 L 8 801 L 8 1126 L 100 1126 L 100 1317 C 100 1424 128 1505 186 1560 C 243 1614 327 1642 438 1642 L 594 1638 L 594 1341 L 539 1346 C 497 1346 477 1319 477 1266 L 477 1124 L 635 1124 L 635 1313 C 635 1420 663 1502 721 1558 C 778 1614 861 1642 971 1642 L 1122 1638 L 1122 1341 C 1104 1344 1085 1346 1065 1346 C 1029 1346 1012 1325 1012 1284 L 1012 1124 L 1124 1124 L 1124 801 L 1012 801 L 1012 0 L 635 0 L 635 801 L 479 801 Z" unicode="ﬀ" />
<glyph horiz-adv-x="1092" d="M 649 807 L 489 807 L 489 0 L 111 0 L 111 801 L 8 801 L 8 1126 L 111 1126 L 111 1317 C 111 1421 142 1502 206 1558 C 270 1614 361 1642 481 1642 L 633 1638 L 633 1343 L 575 1346 C 547 1346 525 1337 510 1319 C 494 1301 487 1276 487 1243 L 487 1124 L 1038 1124 L 1038 76 C 1038 55 1040 37 1045 23 C 1049 9 1053 1 1055 0 L 670 0 C 656 7 649 33 649 78 L 649 807 Z" unicode="ﬁ" />
<glyph horiz-adv-x="1077" d="M 8 801 L 8 1126 L 100 1126 L 100 1317 C 100 1424 128 1505 186 1560 C 243 1614 327 1642 438 1642 L 592 1638 L 592 1343 C 583 1345 563 1346 532 1346 C 496 1346 479 1326 479 1286 L 479 1124 L 588 1124 L 588 801 L 479 801 L 479 0 L 100 0 L 100 801 L 8 801 Z M 1036 0 L 846 -1 L 716 -1 L 673 0 L 657 0 C 652 2 648 13 644 33 C 640 53 639 71 639 88 L 639 1594 L 637 1634 L 1016 1634 C 1016 1632 1016 1624 1018 1612 C 1019 1600 1020 1584 1020 1565 L 1020 78 C 1020 32 1025 6 1036 0 Z" unicode="ﬂ" />
<glyph horiz-adv-x="889" d="M 449 367 C 385 367 324 384 268 418 C 211 452 166 497 134 555 C 102 613 86 675 86 743 C 86 810 102 873 134 931 C 166 989 211 1035 268 1069 C 324 1103 385 1120 449 1120 C 513 1120 573 1103 629 1069 C 685 1035 729 988 761 930 C 793 871 809 809 809 743 C 809 677 793 615 761 557 C 729 499 685 452 629 418 C 573 384 513 367 449 367 Z" unicode="•" />
<glyph horiz-adv-x="901" d="M 793 1227 L 111 1227 L 111 1468 L 793 1468 L 793 1227 Z" unicode="̄" />
<glyph horiz-adv-x="901" d="M 838 1513 C 838 1416 802 1339 732 1281 C 662 1223 569 1194 453 1194 C 336 1194 242 1223 172 1281 C 101 1339 66 1416 66 1513 L 369 1513 C 369 1489 375 1469 388 1452 C 401 1435 423 1427 453 1427 C 481 1427 502 1435 516 1451 C 530 1467 537 1488 537 1513 L 838 1513 Z" unicode="˘" />
<glyph horiz-adv-x="901" d="M 600 1204 L 303 1204 L 303 1518 L 600 1518 L 600 1204 Z" unicode="˙" />
<glyph horiz-adv-x="901" d="M 453 1667 C 520 1667 577 1643 623 1596 C 669 1548 692 1490 692 1421 C 692 1352 669 1294 623 1246 C 577 1198 521 1174 453 1174 C 384 1174 326 1197 280 1245 C 234 1293 211 1351 211 1421 C 211 1491 234 1549 281 1596 C 327 1643 385 1667 453 1667 Z M 453 1493 C 434 1493 418 1485 405 1471 C 391 1457 385 1440 385 1421 C 385 1400 391 1383 405 1369 C 418 1355 434 1348 453 1348 C 470 1348 485 1355 499 1369 C 513 1383 520 1400 520 1421 C 520 1441 513 1458 499 1472 C 485 1486 469 1493 453 1493 Z" unicode="˚" />
<glyph horiz-adv-x="2195" d="M 719 1155 C 719 1053 688 972 628 913 C 567 854 483 825 375 825 C 271 825 190 854 132 912 C 74 970 45 1051 45 1155 L 45 1329 C 45 1426 75 1506 136 1568 C 197 1630 279 1661 383 1661 C 453 1661 514 1646 564 1618 C 614 1589 653 1549 679 1499 C 705 1448 719 1391 719 1329 L 719 1155 Z M 1229 1618 L 414 0 L 229 0 L 1044 1618 L 1229 1618 Z M 2159 311 C 2159 207 2129 125 2069 67 C 2009 9 1925 -20 1817 -20 C 1713 -20 1632 9 1573 68 C 1514 126 1485 207 1485 311 L 1485 483 C 1485 581 1515 661 1577 723 C 1639 784 1721 815 1823 815 C 1892 815 1952 800 2003 771 C 2053 742 2092 702 2119 652 C 2145 602 2159 545 2159 483 L 2159 311 Z M 1423 311 C 1423 207 1393 126 1334 68 C 1275 9 1191 -20 1081 -20 C 978 -20 897 9 838 67 C 779 125 750 207 750 311 L 750 483 C 750 581 780 661 842 723 C 904 784 985 815 1087 815 C 1156 815 1216 800 1267 772 C 1317 743 1356 704 1383 654 C 1409 604 1423 547 1423 483 L 1423 311 Z M 449 1176 L 449 1311 C 449 1330 443 1347 431 1362 C 419 1376 403 1384 383 1384 C 358 1384 340 1376 330 1361 C 320 1346 315 1329 315 1311 L 315 1176 C 315 1120 337 1092 383 1092 C 427 1092 449 1120 449 1176 Z M 1890 332 L 1890 465 C 1890 483 1884 501 1874 517 C 1863 533 1846 541 1823 541 C 1777 541 1755 515 1755 465 L 1755 332 C 1755 309 1760 289 1770 272 C 1780 254 1797 246 1823 246 C 1844 246 1860 252 1872 265 C 1884 277 1890 300 1890 332 Z M 1155 332 L 1155 465 C 1155 483 1149 501 1139 517 C 1129 533 1111 541 1087 541 C 1061 541 1044 533 1034 517 C 1024 501 1020 483 1020 465 L 1020 332 C 1020 274 1042 246 1087 246 C 1132 246 1155 274 1155 332 Z" unicode="‰" />
<glyph horiz-adv-x="1614" d="M 1311 1055 L 1311 1346 C 1311 1366 1308 1380 1303 1388 C 1297 1396 1287 1401 1272 1401 C 1240 1401 1225 1373 1225 1319 L 1225 1055 L 963 1055 L 963 1350 C 963 1370 960 1384 954 1391 C 948 1397 938 1401 924 1401 C 890 1401 874 1372 874 1315 L 874 1055 L 612 1055 L 612 1634 L 868 1634 L 868 1534 C 877 1570 898 1597 930 1616 C 962 1635 1002 1645 1051 1645 C 1091 1645 1124 1635 1152 1617 C 1179 1598 1197 1570 1206 1532 C 1232 1607 1297 1645 1401 1645 C 1454 1645 1496 1629 1528 1597 C 1559 1565 1575 1520 1575 1464 L 1575 1055 L 1311 1055 Z M 582 1395 L 410 1395 C 410 1358 411 1331 413 1313 C 415 1295 420 1283 430 1277 C 440 1271 454 1268 473 1268 L 505 1268 L 532 1270 L 532 1061 C 505 1054 453 1051 377 1051 C 309 1051 255 1066 215 1098 C 175 1130 156 1177 156 1239 L 156 1395 L 6 1395 L 6 1634 L 582 1634 L 582 1395 Z" unicode="™" />
<glyph horiz-adv-x="1020" d="M 508 -195 C 508 -210 517 -222 536 -232 C 555 -242 579 -248 608 -250 L 608 -397 C 481 -393 386 -374 324 -342 C 262 -310 231 -261 231 -197 C 231 -133 258 -85 314 -52 C 369 -19 449 -2 555 0 L 567 -135 C 527 -143 508 -163 508 -195 Z" unicode="˛" />
<glyph horiz-adv-x="1664" d="M 832 1376 C 706 1376 599 1328 510 1234 C 420 1139 376 1006 376 836 C 376 673 405 538 464 432 C 522 325 609 241 724 180 L 724 0 L 88 0 L 88 196 L 536 196 C 456 225 378 295 304 406 C 229 516 192 664 192 848 C 192 1024 247 1184 358 1330 C 468 1475 626 1548 832 1548 C 1037 1548 1195 1478 1306 1338 C 1416 1198 1472 1034 1472 848 C 1472 664 1434 516 1360 406 C 1285 295 1208 225 1128 196 L 1576 196 L 1576 0 L 940 0 L 940 180 C 1054 241 1141 325 1200 432 C 1258 538 1288 673 1288 836 C 1288 974 1246 1099 1162 1210 C 1078 1320 968 1376 832 1376 Z" unicode="Ω" />
<glyph horiz-adv-x="901" d="M 362 1296 C 348 1296 335 1289 323 1277 C 311 1264 304 1241 303 1208 L 61 1208 C 62 1320 83 1405 124 1464 C 165 1522 221 1552 291 1552 C 323 1552 353 1547 380 1539 C 406 1530 431 1513 455 1489 C 475 1468 489 1456 497 1452 C 504 1448 513 1446 524 1446 C 561 1446 581 1479 584 1546 L 815 1546 C 815 1436 795 1349 756 1286 C 716 1223 662 1192 594 1192 C 554 1192 524 1196 504 1205 C 483 1213 457 1232 427 1262 C 403 1284 381 1296 362 1296 Z" unicode="˜" />
<glyph horiz-adv-x="901" d="M 487 1202 L 594 1542 L 930 1542 L 770 1202 L 487 1202 Z M 104 1202 L 211 1542 L 547 1542 L 387 1202 L 104 1202 Z" unicode="˝" />
<glyph horiz-adv-x="477" d="M 442 0 L 59 0 C 53 0 49 5 47 15 C 45 25 45 46 45 78 L 45 1126 L 434 1126 L 434 76 C 434 46 434 26 435 17 C 435 7 438 2 442 0 Z" unicode="ı" />
<glyph horiz-adv-x="956" d="M 477 659 L 477 375 L 940 375 L 940 0 L 51 0 L 51 549 L 12 539 L 12 743 L 51 756 L 51 1634 L 477 1634 L 477 866 L 709 928 L 709 721 L 477 659 Z" unicode="Ł" />
<glyph horiz-adv-x="518" d="M 451 662 L 451 78 C 451 32 455 6 463 0 L 272 -1 L 142 -1 L 82 0 C 74 5 70 34 70 88 L 70 539 L 6 520 L 6 731 L 70 752 L 70 1536 C 70 1586 67 1619 61 1634 L 442 1634 C 448 1625 451 1602 451 1565 L 451 874 L 514 895 L 514 684 L 451 662 Z" unicode="ł" />
<glyph horiz-adv-x="901" d="M 817 1204 L 512 1204 L 449 1323 L 385 1204 L 88 1204 L 264 1542 L 639 1542 L 817 1204 Z" unicode="ˆ" />
<glyph horiz-adv-x="1540" d="M 743 1634 L 1524 1634 L 1524 1255 L 1075 1255 L 1075 1001 L 1495 1001 L 1495 643 L 1075 643 L 1075 371 L 1526 371 L 1526 0 L 727 0 C 663 -15 606 -23 555 -23 C 261 -23 93 96 51 334 C 45 364 40 433 35 540 C 29 646 27 740 27 821 C 27 1069 35 1218 51 1268 C 97 1523 263 1651 549 1651 C 615 1651 680 1645 743 1634 Z M 561 332 C 587 332 606 336 618 344 C 630 352 638 368 644 390 C 650 412 654 468 658 558 C 662 648 664 734 664 817 L 664 878 C 664 958 663 1033 661 1101 C 659 1169 654 1213 647 1235 C 639 1256 629 1271 616 1279 C 602 1287 584 1292 561 1292 C 536 1292 516 1287 502 1278 C 488 1268 477 1253 470 1231 C 463 1209 458 1154 454 1066 C 450 977 449 893 449 815 C 449 727 450 641 454 559 C 458 477 463 423 471 399 C 478 374 488 357 502 347 C 516 337 535 332 561 332 Z" unicode="Œ" />
<glyph horiz-adv-x="1475" d="M 461 -14 C 356 -14 269 10 199 59 C 129 107 81 178 55 272 C 33 366 23 464 23 567 C 23 619 27 678 35 744 C 43 810 52 856 63 883 C 132 1056 272 1143 483 1143 C 537 1143 588 1134 634 1117 C 680 1100 718 1077 748 1047 C 772 1078 807 1102 854 1118 C 900 1134 953 1143 1012 1143 C 1112 1143 1198 1119 1269 1071 C 1340 1023 1388 960 1413 880 C 1437 800 1450 671 1450 493 L 1450 451 L 926 451 C 926 387 928 346 934 328 C 941 288 966 268 1010 268 C 1026 268 1040 272 1054 280 C 1068 288 1077 302 1081 322 C 1087 330 1091 347 1093 375 L 1094 389 L 1450 389 C 1448 381 1446 369 1444 353 C 1441 336 1437 317 1431 295 C 1425 273 1419 251 1411 228 C 1403 204 1393 182 1382 162 C 1348 102 1301 57 1240 28 C 1178 -1 1108 -16 1028 -16 C 966 -16 906 -5 850 15 C 794 35 757 62 741 94 C 720 62 683 36 631 16 C 578 -3 521 -14 461 -14 Z M 1094 668 C 1094 692 1092 719 1090 747 C 1088 775 1085 793 1083 801 C 1079 816 1071 828 1057 837 C 1043 845 1027 850 1008 850 C 991 850 976 846 964 840 C 952 834 943 825 937 814 C 931 803 927 780 924 744 C 921 708 920 683 920 668 L 1094 668 Z M 569 561 C 569 653 566 723 560 769 C 554 815 528 838 481 838 C 450 838 428 824 415 796 C 401 768 395 689 395 561 C 395 427 401 347 415 323 C 428 299 450 287 481 287 C 505 287 524 294 538 308 C 552 322 560 350 564 392 C 567 434 569 490 569 561 Z" unicode="œ" />
<glyph horiz-adv-x="510" d="M 481 215 L 29 580 L 29 860 L 481 1225 L 481 858 L 295 721 L 481 584 L 481 215 Z" unicode="‹" />
<glyph horiz-adv-x="510" d="M 29 215 L 29 584 L 217 721 L 29 858 L 29 1225 L 483 860 L 483 580 L 29 215 Z" unicode="›" />
<glyph horiz-adv-x="1030" d="M 1010 432 C 1010 285 967 172 881 94 C 795 16 673 -23 514 -23 C 405 -23 314 -8 241 22 C 168 52 113 96 75 155 C 37 214 18 302 18 419 L 18 487 L 414 487 L 420 377 C 424 330 454 307 512 307 C 569 307 598 341 598 410 C 598 452 587 487 566 517 C 545 547 503 584 440 629 L 264 756 C 193 806 142 851 110 891 C 78 931 55 977 39 1028 C 23 1079 16 1141 16 1214 C 16 1349 60 1456 148 1535 C 236 1613 358 1653 512 1653 C 595 1653 667 1641 728 1619 C 788 1596 838 1564 878 1523 C 918 1481 948 1430 968 1368 C 988 1306 999 1223 999 1120 L 602 1120 L 598 1235 C 590 1283 562 1307 512 1307 C 483 1307 460 1299 444 1285 C 428 1271 420 1249 420 1221 C 420 1196 424 1174 432 1156 C 440 1138 451 1120 467 1103 C 482 1086 521 1054 584 1008 L 760 877 C 832 822 883 775 915 735 C 947 695 970 650 986 602 C 1002 553 1010 496 1010 432 Z M 150 2064 L 453 2064 L 519 1944 L 580 2064 L 879 2064 L 701 1725 L 326 1725 L 150 2064 Z" unicode="Š" />
<glyph horiz-adv-x="885" d="M 864 317 C 864 209 828 126 758 68 C 688 9 587 -20 455 -20 C 355 -20 272 -8 207 16 C 142 40 94 76 62 124 C 30 172 15 244 15 340 L 16 369 L 367 369 C 367 319 372 288 384 277 C 395 265 414 260 440 260 C 482 260 504 279 504 317 C 504 339 497 358 484 372 C 471 386 446 400 410 414 L 254 469 C 174 495 116 537 79 593 C 41 649 23 725 23 823 C 23 921 58 999 130 1057 C 201 1115 300 1145 426 1145 C 521 1145 600 1132 663 1106 C 725 1080 771 1040 799 988 C 827 936 842 858 842 754 L 496 754 L 492 805 C 488 832 469 846 434 846 C 392 846 371 829 371 795 C 371 777 376 764 387 756 C 398 747 417 738 444 729 L 633 662 C 713 632 772 589 809 535 C 845 481 864 408 864 317 Z M 79 1556 L 382 1556 L 448 1436 L 509 1556 L 808 1556 L 630 1217 L 255 1217 L 79 1556 Z" unicode="š" />
<glyph horiz-adv-x="1152" d="M -8 -392 L 56 -260 C 96 -273 132 -280 164 -280 C 196 -280 222 -268 242 -246 C 262 -223 277 -178 288 -112 L 516 1224 C 553 1437 674 1544 880 1544 C 941 1544 995 1536 1042 1522 C 1088 1507 1125 1492 1152 1476 L 1088 1304 C 1008 1354 935 1380 868 1380 C 806 1380 760 1360 730 1322 C 699 1283 680 1238 672 1188 L 448 -224 C 434 -296 402 -348 350 -382 C 298 -415 240 -432 176 -432 C 136 -432 99 -428 66 -420 C 32 -412 8 -402 -8 -392 Z" unicode="∫" />
<glyph horiz-adv-x="901" d="M 84 1556 L 387 1556 L 453 1436 L 514 1556 L 813 1556 L 635 1217 L 260 1217 L 84 1556 Z" unicode="ˇ" />
<glyph horiz-adv-x="1153" d="M 1153 1634 L 778 625 L 778 0 L 356 0 L 356 614 L 0 1634 L 426 1634 C 517 1300 564 1113 567 1073 C 569 1109 588 1187 624 1309 C 660 1431 695 1539 727 1634 L 1153 1634 Z M 917 1710 L 630 1710 L 630 2013 L 917 2013 L 917 1710 Z M 521 1710 L 235 1710 L 235 2013 L 521 2013 L 521 1710 Z" unicode="Ÿ" />
<glyph horiz-adv-x="1477" d="M 1432 0 L 1030 0 L 1030 453 L 1432 453 L 1432 0 Z M 940 0 L 539 0 L 539 453 L 940 453 L 940 0 Z M 449 0 L 45 0 L 45 453 L 449 453 L 449 0 Z" unicode="…" />
<glyph horiz-adv-x="1001" d="M 989 0 L 16 0 L 16 344 L 494 1253 L 55 1253 L 55 1634 L 981 1634 L 981 1288 L 496 373 L 989 373 L 989 0 Z M 136 2064 L 439 2064 L 505 1944 L 566 2064 L 865 2064 L 687 1725 L 312 1725 L 136 2064 Z" unicode="Ž" />
<glyph horiz-adv-x="854" d="M 834 0 L 23 0 L 23 307 L 397 807 L 37 807 L 37 1126 L 827 1126 L 827 819 L 451 319 L 834 319 L 834 0 Z M 64 1556 L 367 1556 L 433 1436 L 494 1556 L 793 1556 L 615 1217 L 240 1217 L 64 1556 Z" unicode="ž" />
<glyph horiz-adv-x="1536" d="M 212 236 L 212 452 L 1112 792 L 212 1128 L 212 1344 L 1352 872 L 1352 708 L 212 236 Z M 212 24 L 212 216 L 1348 216 L 1348 24 L 212 24 Z" unicode="≥" />
<glyph horiz-adv-x="1614" d="M 1169 807 L 1012 807 L 1012 0 L 635 0 L 635 807 L 479 807 L 479 0 L 100 0 L 100 801 L 8 801 L 8 1126 L 100 1126 L 100 1317 C 100 1424 128 1505 186 1560 C 243 1614 327 1642 438 1642 L 594 1638 L 594 1341 L 539 1346 C 497 1346 477 1319 477 1266 L 477 1124 L 635 1124 L 635 1313 C 635 1420 663 1502 721 1558 C 778 1614 861 1642 971 1642 L 1122 1638 L 1122 1341 C 1104 1344 1085 1346 1065 1346 C 1029 1346 1012 1325 1012 1284 L 1012 1124 L 1561 1124 L 1561 76 C 1561 55 1563 37 1567 23 C 1571 9 1575 1 1577 0 L 1194 0 C 1177 3 1169 29 1169 78 L 1169 807 Z" unicode="ﬃ" />
<glyph horiz-adv-x="756" d="M 121 -391 C 65 -391 7 -389 -53 -385 L -53 -86 L -8 -88 L 31 -88 C 51 -88 68 -80 84 -65 C 100 -50 109 -31 113 -8 L 188 807 L 90 807 L 90 1135 L 219 1135 L 238 1329 C 247 1435 284 1515 349 1568 C 414 1620 504 1647 618 1647 C 682 1647 730 1645 760 1641 L 791 1638 L 791 1346 L 700 1350 C 673 1350 652 1342 638 1326 C 624 1310 616 1292 614 1274 L 600 1128 L 727 1128 L 727 807 L 573 807 L 494 -68 C 472 -283 347 -391 121 -391 Z" unicode="ƒ" />
<glyph horiz-adv-x="1536" d="M 76 0 L 652 1536 L 884 1536 L 1456 0 L 76 0 Z M 352 148 L 1164 148 L 752 1256 L 352 148 Z" unicode="Δ" />
<glyph horiz-adv-x="262" d="M 453 1632 C 306 1134 150 590 -14 0 L -193 0 L 59 874 L 274 1632 L 453 1632 Z" unicode="⁄" />
<glyph horiz-adv-x="1664" d="M 832 1376 C 706 1376 599 1328 510 1234 C 420 1139 376 1006 376 836 C 376 673 405 538 464 432 C 522 325 609 241 724 180 L 724 0 L 88 0 L 88 196 L 536 196 C 456 225 378 295 304 406 C 229 516 192 664 192 848 C 192 1024 247 1184 358 1330 C 468 1475 626 1548 832 1548 C 1037 1548 1195 1478 1306 1338 C 1416 1198 1472 1034 1472 848 C 1472 664 1434 516 1360 406 C 1285 295 1208 225 1128 196 L 1576 196 L 1576 0 L 940 0 L 940 180 C 1054 241 1141 325 1200 432 C 1258 538 1288 673 1288 836 C 1288 974 1246 1099 1162 1210 C 1078 1320 968 1376 832 1376 Z" unicode="Ω" />
<glyph horiz-adv-x="1536" d="M 236 400 C 230 429 228 456 228 480 C 228 546 248 604 288 652 C 328 700 390 724 476 724 C 542 724 600 714 650 696 C 699 677 745 659 788 642 C 830 624 872 610 912 598 C 952 586 988 580 1020 580 C 1070 580 1106 590 1128 610 C 1149 630 1160 654 1160 684 L 1156 716 L 1300 716 C 1305 686 1308 660 1308 636 C 1308 569 1288 512 1248 464 C 1208 416 1145 392 1060 392 C 993 392 935 400 886 418 C 836 435 790 452 748 470 C 705 487 664 501 624 512 C 584 522 548 528 516 528 C 465 528 429 518 408 500 C 386 481 376 458 376 432 L 380 400 L 236 400 Z M 236 860 C 230 889 228 916 228 940 C 228 1006 248 1064 288 1112 C 328 1160 390 1184 476 1184 C 542 1184 600 1174 650 1156 C 699 1137 745 1119 788 1102 C 830 1084 872 1070 912 1058 C 952 1046 988 1040 1020 1040 C 1070 1040 1106 1050 1128 1070 C 1149 1090 1160 1114 1160 1144 L 1156 1176 L 1300 1176 C 1305 1146 1308 1120 1308 1096 C 1308 1029 1288 972 1248 924 C 1208 876 1145 852 1060 852 C 993 852 935 860 886 878 C 836 895 790 912 748 930 C 705 947 664 961 624 972 C 584 982 548 988 516 988 C 465 988 429 978 408 960 C 386 941 376 918 376 892 L 380 860 L 236 860 Z" unicode="≈" />
<glyph horiz-adv-x="1408" d="M 252 -424 C 214 -424 186 -413 168 -392 C 149 -370 140 -333 140 -280 C 140 -176 145 -49 156 100 C 166 233 172 309 172 328 L 176 356 L 176 1176 L 368 1176 L 368 320 C 368 258 395 210 450 176 C 504 141 564 124 628 124 C 716 124 792 146 858 190 C 923 234 973 297 1008 380 L 1008 1176 L 1200 1176 L 1200 308 L 1220 0 L 1056 0 L 1020 176 C 974 104 913 50 836 14 C 758 -22 670 -40 572 -40 C 537 -40 494 -31 444 -14 C 393 3 353 28 324 60 C 324 1 333 -56 352 -112 C 370 -168 380 -218 380 -264 C 380 -370 337 -424 252 -424 Z" unicode="μ" />
<glyph horiz-adv-x="1408" d="M 296 0 L 296 1028 L 12 1028 L 12 1176 L 1316 1176 L 1316 1028 L 996 1028 L 996 344 C 996 266 1011 213 1042 184 C 1072 154 1109 140 1152 140 C 1184 140 1210 140 1232 142 C 1253 143 1274 148 1296 156 L 1296 28 C 1264 12 1234 0 1206 -6 C 1178 -12 1138 -16 1088 -16 C 1002 -16 935 10 886 64 C 836 117 812 208 812 336 L 812 1028 L 484 1028 L 484 0 L 296 0 Z" unicode="π" />
<glyph horiz-adv-x="1536" d="M 212 976 L 212 1176 L 900 1176 L 996 1356 L 1168 1356 L 1072 1176 L 1328 1176 L 1328 976 L 964 976 L 768 604 L 1328 604 L 1328 404 L 660 404 L 548 188 L 372 188 L 488 404 L 212 404 L 212 604 L 592 604 L 792 976 L 212 976 Z" unicode="≠" />
<glyph horiz-adv-x="1152" d="M 472 -48 L 68 756 L 472 1560 L 656 1560 L 1084 756 L 656 -48 L 472 -48 Z M 556 152 L 876 768 L 572 1356 L 252 740 L 556 152 Z" unicode="◊" />
<glyph horiz-adv-x="1536" d="M 1348 236 L 208 708 L 208 872 L 1348 1344 L 1348 1128 L 448 792 L 1348 452 L 1348 236 Z M 212 24 L 212 216 L 1348 216 L 1348 24 L 212 24 Z" unicode="≤" />
<glyph horiz-adv-x="674" d="M 657 791 L 526 791 L 526 -12 L 336 -254 L 147 -12 L 147 791 L 16 791 L 16 1063 L 147 1063 L 147 1624 L 526 1624 L 527 1407 L 527 1223 L 526 1063 L 657 1063 L 657 791 Z" unicode="†" />
<glyph horiz-adv-x="1610" d="M 479 801 L 479 0 L 100 0 L 100 801 L 8 801 L 8 1126 L 100 1126 L 100 1317 C 100 1424 128 1505 186 1560 C 243 1614 327 1642 438 1642 L 594 1638 L 594 1341 L 539 1346 C 497 1346 477 1319 477 1266 L 477 1124 L 635 1124 L 635 1313 C 635 1420 663 1502 721 1558 C 778 1614 861 1642 971 1642 L 1124 1638 L 1124 1341 C 1106 1344 1086 1346 1065 1346 C 1029 1346 1012 1325 1012 1284 L 1012 1124 L 1120 1124 L 1120 801 L 1012 801 L 1012 0 L 635 0 L 635 801 L 479 801 Z M 1569 0 L 1379 -1 L 1249 -1 L 1190 0 C 1184 3 1179 14 1176 32 C 1172 50 1171 69 1171 88 L 1171 1594 L 1169 1634 L 1548 1634 C 1548 1632 1548 1624 1550 1612 C 1551 1600 1552 1584 1552 1565 L 1552 78 C 1552 31 1557 5 1569 0 Z" unicode="ﬄ" />
<glyph horiz-adv-x="776" d="M 352 1055 L 352 1309 L 10 1309 L 10 1628 L 766 1628 L 766 1309 L 416 1309 L 416 1055 C 472 1047 519 1020 559 976 C 598 931 618 880 618 823 C 618 767 598 716 560 672 C 521 628 472 602 414 594 L 414 371 L 766 371 L 766 10 L 10 10 L 10 371 L 350 371 L 350 594 C 292 603 245 629 208 672 C 170 715 152 765 152 823 C 152 882 171 934 211 978 C 251 1022 298 1047 352 1055 Z M 227 743 L 317 768 L 262 698 C 288 673 318 657 352 651 L 352 748 L 383 815 L 414 748 L 414 651 C 446 657 476 672 504 694 L 444 770 L 541 743 C 554 767 561 793 561 823 C 561 855 553 885 537 911 L 444 887 L 500 956 C 479 976 451 989 416 997 L 416 901 L 383 831 L 354 901 L 354 997 C 321 991 292 976 266 952 L 322 883 L 229 907 C 215 877 209 849 209 823 C 209 794 215 767 227 743 Z" unicode="" />
</font>
</defs>
</svg>
